Завантажити та скачати торренти українською


Fusion Orchestra - Octagon (2006) [FLAC] | Jazz rock / Fusion

Нові коментарі

Нова тема   Відповісти
Останній раз роздавалося vetalmb (2015-09-03)
Автор Повідомлення
jeether 
Новенький


З нами з: 03.01.10
Востаннє: 02.11.16
Повідомлень: 8

2010-01-03 23:23  
Fusion Orchestra - Octagon (2006) [FLAC] | Jazz rock / Fusion



Стиль: Ethno Fusion Jazz
Країна, місто: Україна, Севастополь
Сайти: Офіційний сайт
Видавець: автор.

Виконавці:
Сергій Богдан (акустична гітара);
Євген Попов (клавішні);
Павло Воронежський (бас);
Денис Мельников (ударні).

Пісні:
    1 Dance (4:01)
    2 Unexpected Guest (8:13)
    3 December Rain (6:18 )
    4 Jadido (4:55)
    5 Black Bagel (4:35)
    6 Mayan Loom (10:20)
    7 Russia (6:33)
    8 Forgotten Feelings (6:30)

Тривалість: 00:51:18
Мова: відсутня
Аудіо-кодек: FLAC
Бітрейт: 644-903 кб/с
Джерело: CD
Додаткова інформація:
Fusion Orchestra — група севастопольських музикантів, що створюють і виконують музику, засновану на переосмисленні та поєднанні живого етносу і сучасних музичних стилістичних засобів.
Рецензія від Антона Йожик Лейба
Є неподалік міста Севастополь таке місце – мис Фіолент зветься. Узбережжя там стрімке, круте, морем порізане – і дуже мальовниче. А море тамтешнє... Кажуть, подібну красу за вікном можуть побачити хіба-що грецькі рибалки – вода така прозора, що часом нею хочеться дихати. І ось здається мені, що диханням саме такої великої води – солоної, вільної, чистої, потужної – насичена нова платівка Fusion Orchestra. Це велике задоволення – слухати музику, яка впустила, змінила, наситила і видихнула так багато яскравих вражень, життів, коренів... Коли музика є розкритою навстіж – кожен може від неї напитися, побачити в ній своє обличчя, знайти в ній своє справжнє. Fusion Orchestra дуже тонко апелює до, наприклад, грецьких, татарських (та й не тільки) мотивів – цю етнічну складову ти не стільки навіть чуєш, скільки відчуваєш, а відчуваєш так гостро, що кров прискорює біг, просить сонця і солі... В наступну мить приходить невідомий хтось, за ним приходить дощ, і він співає так, що все навколо – зникає, розчиняється неквапно, і залишаєшся лиш ти – і дощ – і спів його прозорий, так затишно і м’яко... А потім – нова хвиля, і східний вітер впивається вустами у гарячу засмагу – і зривається у напружений танець без сторін і без дна, без надії, і саме тому він – тільки він, безнадійний – зможе привести на сяючий берег, пройти порожнечу. А скоро зненацька потрапляєш у воду великого нічного міста, в якому жага і пошук більш реальні, ніж домівки, люди, зустрічі... В ейсід-джазовій хвилі кожен звук має колір, кожна мелодія – запах... Так. Як море зажди має хвилю-другу в запасі, так і альбом "Октагон" – не втомлюється міняти обличчя, настрої, відтінки, ламати ритми і уявлення про... Але за всім цим – відчувається найсильніша вода. Та, що поєднує, напуває, обмиває. Та, без якої життя – неможливе. Принаймні, тут.
EAC log (what.cd log cheсker score: 100 out of 100)

Код:

Exact Audio Copy V0.99 prebeta 5 from 4. May 2009

EAC extraction logfile from 3. January 2010, 15:50

Fusion Orchestra / Octagon

Used drive  : HL-DT-STDVDRAM GSA-H12N   Adapter: 4  ID: 0

Read mode               : Secure
Utilize accurate stream : Yes
Defeat audio cache      : Yes
Make use of C2 pointers : No

Read offset correction                      : 667
Overread into Lead-In and Lead-Out          : No
Fill up missing offset samples with silence : Yes
Delete leading and trailing silent blocks   : No
Null samples used in CRC calculations       : Yes
Used interface                              : Native Win32 interface for Win NT & 2000
Gap handling                                : Appended to previous track

Used output format              : User Defined Encoder
Selected bitrate                : 1024 kBit/s
Quality                         : High
Add ID3 tag                     : No
Command line compressor         : C:\Program Files\Exact Audio Copy\FLAC\FLAC.EXE
Additional command line options : -V -8 -T "artist=%a" -T "title=%t" -T "album=%g" -T "date=%y" -T "tracknumber=%n" -T "genre=%m" %s

TOC of the extracted CD

     Track |   Start  |  Length  | Start sector | End sector
    ---------------------------------------------------------
        1  |  0:00.00 |  4:02.74 |         0    |    18223
        2  |  4:02.74 |  8:13.35 |     18224    |    55233
        3  | 12:16.34 |  6:17.71 |     55234    |    83579
        4  | 18:34.30 |  4:55.55 |     83580    |   105759
        5  | 23:30.10 |  4:35.44 |    105760    |   126428
        6  | 28:05.54 | 10:19.72 |    126429    |   172925
        7  | 38:25.51 |  6:35.46 |    172926    |   202596
        8  | 45:01.22 |  6:28.34 |    202597    |   231730

Track  1

     Filename C:\Users\jeether\Desktop\Новая папка\01. Dance.wav

     Pre-gap length  0:00:02.00

     Peak level 99.6 %
     Track quality 100.0 %
     Test CRC F54005EE
     Copy CRC F54005EE
     Track not present in AccurateRip database
     Copy OK

Track  2

     Filename C:\Users\jeether\Desktop\Новая папка\02. Unexpected Guest.wav

     Pre-gap length  0:00:02.00

     Peak level 99.6 %
     Track quality 99.9 %
     Test CRC FF7672CF
     Copy CRC FF7672CF
     Track not present in AccurateRip database
     Copy OK

Track  3

     Filename C:\Users\jeether\Desktop\Новая папка\03. December Rain.wav

     Pre-gap length  0:00:02.00

     Peak level 99.6 %
     Track quality 100.0 %
     Test CRC 4E6DC6BB
     Copy CRC 4E6DC6BB
     Track not present in AccurateRip database
     Copy OK

Track  4

     Filename C:\Users\jeether\Desktop\Новая папка\04. Jadido.wav

     Pre-gap length  0:00:02.00

     Peak level 99.6 %
     Track quality 100.0 %
     Test CRC AA72CE86
     Copy CRC AA72CE86
     Track not present in AccurateRip database
     Copy OK

Track  5

     Filename C:\Users\jeether\Desktop\Новая папка\05. Black Bagel.wav

     Pre-gap length  0:00:02.00

     Peak level 99.6 %
     Track quality 99.9 %
     Test CRC 62383FB6
     Copy CRC 62383FB6
     Track not present in AccurateRip database
     Copy OK

Track  6

     Filename C:\Users\jeether\Desktop\Новая папка\06. Mayan Loom.wav

     Pre-gap length  0:00:02.00

     Peak level 99.6 %
     Track quality 99.9 %
     Test CRC 7E5C76EC
     Copy CRC 7E5C76EC
     Track not present in AccurateRip database
     Copy OK

Track  7

     Filename C:\Users\jeether\Desktop\Новая папка\07. Russia.wav

     Pre-gap length  0:00:02.00

     Peak level 99.6 %
     Track quality 100.0 %
     Test CRC C8DED0BB
     Copy CRC C8DED0BB
     Track not present in AccurateRip database
     Copy OK

Track  8

     Filename C:\Users\jeether\Desktop\Новая папка\08. Forgotten Feelings.wav

     Pre-gap length  0:00:04.00

     Peak level 99.6 %
     Track quality 100.0 %
     Test CRC 6DAADB7F
     Copy CRC 6DAADB7F
     Track not present in AccurateRip database
     Copy OK

None of the tracks are present in the AccurateRip database

No errors occurred

End of status report

Також на Толоці Ви можете знайти:
Fusion Orchestra - Apocrypha (2007) [FLAC]


Якщо Ви справді бажаєте підтримати українське - після прослуховування, якщо музика вам сподобалась, придбайте ліцензійний диск.
Підтримаймо вітчизняних виконавців!


Срібний реліз (на рейтинг впливає 50% завантаженого)
 Трекер:    Зареєстрований   

Завантажити / скачати українську музику



відео для новачків



 Зареєстрований:   2010-01-03 23:23
 Розмір:   315 MB 
 Оцінка музики:   10/10 (Голосів: 5)
   
hless 
Новенький


З нами з: 25.10.09
Востаннє: 27.06.16
Повідомлень: 10

2010-04-17 09:03  
Привіт, альбом 2007 року скачав, дуже сподобалося, 8% залишилося цього, поможіть, встаньте на роздачу. Дякую.
Ваш часовий пояс: GMT + 2 Години

Нова тема   Відповісти