Завантажити та скачати торренти українською


Оркеstр Янки Козир (ОЯК) | Дискографія (2 альбоми) (2006—2007) [FLAC] | Folk-Rock

Нові коментарі

Нова тема   Відповісти
Автор Повідомлення
jinotot 
Почесний оцифрувальник літератури


З нами з: 28.01.09
Востаннє: 04.12.16
Повідомлень: 3235

2009-12-24 03:51  
Оркеstр Янки Козир (ОЯК) | Дискографія (2 альбоми) (2006—2007) [FLAC] | Folk-Rock



Стиль: Folk-Rock
Країна, місто: Україна, Київ
Сайти: Офіційний сайт
Видавець: Tempora, МА "Наш формат", гурт
Виконавці:
Шляхи
Оркеstр Янки Козир (ОЯК):
- Янка Козир — вокал
- Олексій Ткачук — вокал, бек-вокал (12, 17)
- Роман Сокирко — ударні, перкусії (4, 12)
- Павло Попов — гітара
- Сергій Радзецький — бас-гітара, клавіші (3—6, 8—10, 12, 13, 16, 17); бек-вокал (5, 9, 10, 15, 17); акустична гітара (8, 12—14, 17)
- Микола Кірсанов — клавіші (3, 5, 6, 11, 15)
- Юрій Салтиков — флейта (3, 5, 8, 9, 16) перкусії (4, 9, 12)
- Серго Чантурія — гітара (5)
- Віктор Соломін — домра (6, 7, 14)
- Микола Клінецький — гітара (7)
- Аліна Козира — бек-вокал (7—10, 13-14)
- Денис Трубіцин — кларнет (9)
Мати
Оркеstр Янки Козир (ОЯК):
- Янка Козир — вокал
- Олексій Ткачук — вокал
- Аліна Козир — вокал (6)
- Олеся Чечельницька — вокал (8)
- Марина Литвинова — хоровий вокал (2, 3, 5—13)
- Сергій Радзецький — бас-гітара; акустична гітара (4)
- Дмитро Ольшанський — ударні
- Павло Попов — гітара
- Світлана Дідух — клавішні
Альбоми:
2006 — Шляхи
Пісні:
    01. Прелюдія /музика: ОЯК/
    02. Шляхи (вступ) /слова: Олександр Литовка; музика: ОЯК/
    03. Шляхи /слова: Олександр Литовка; музика: ОЯК/
    04. Вовчиця я! /слова: Олександр Литовка; музика: ОЯК/
    05. Зозуленька /слова: Олександр Литовка; музика: ОЯК/
    06. Відти гора /українська народна пісня/
    07. Вівці ж мої вівці /українська народна пісня/
    08. Я тікаю! /слова: Олександр Литовка; музика: ОЯК/
    09. Політ коршака /слова та музика: Дмитро Добрий-Вечір/
    10. Пекельний шлях /слова: Олена Верещак, Олександр Литовка; музика: Янка Козир/
    11. Пси свободи /слова: Олександр Литовка; музика: ОЯК/
    12. Діти Сонця /слова: О. Литовка; музика: ОЯК, Сергій Радзецький/
    13. Ой повиходьте у Вештаньки /українська народна пісня/
    14. Перші квіточки весни /слова: Наталія Громостика; музика: Янка Козир/
    15. ЯНЕБУДУКАВУПИЛА /слова: народні; музика: ОЯК/
    16. Трави нема /слова: О. Литовка; музика: ОЯК/
    17. Всі сплять /слова: Олександр Литовка; музика: ОЯК, Сергій Радзецький/
Тривалість: 01:09:50
Бітрейт: 842 кб/с
Видавець: Tempora
УМКА про альбом
Цього альбому чекали давно, вже кілька років. Чекали віддано – тому що "Оркестр Янки Козир" якось так швидко став однією з центральних фігур української альтернативної сцени. Почніть слухати – і, гадаю, Ви одразу зрозумієте, чому цей гурт є таким популярним серед наших шанувальників незалежної музики. Втім, не тільки серед наших – вже більше року тому "Оркестр Янки Козир" потрапив, наприклад, до поважного незалежного каталогу кращого європейського андеґраунду, "Ghostland.com". Якщо не помиляюся – перший серед українських гуртів. Втім, не дивно. Сьогодні цей колектив чи не краще від усіх сполучає "важку" музику з фольклорними мотивами – ще й оздоблює яскравим жіночим вокалом. Власне, недарма ім’я Янки винесено в назву гурту – її манера виконання наділяє творчість "Оркестру..." дуже особливим обличчям. Тут дивним чином перетинаються міська знервованість, різкість – і вкоріненість у якісь прадавні культурні шари. Янка наче і не співає, а ворожить – і не копіює відомі зразки, а просто черпає вміння з якогось первинного витоку. Не те щоб відроджує – скоріше, наново народжує якісь містичні проходи між світами. Чи не тому альбом називається "Шляхи"? – не знаю. Але гадаю, що ця платівка цілком спроможна відкрити слухачеві щось нове не тільки у музиці – а й у способі спостереження і пізнання світу. Мені здається, цей диск варто послухати всім – і тим, хто цінує незалежне музичне мислення, і тим, кого цікавлять фольклорні досліди, і тим, хто просто має не пласке почуття гумору. І тим, хто всього цього не любить – теж. Обрії мають розширюватись.
Антон Йожик Лейба
Лоґ-файл
Exact Audio Copy V1.0 beta 3 from 29. August 2011

EAC extraction logfile from 6. February 2012, 22:57

Оркеstр Янки Козир / Шляхи

Used drive : ASUS DRW-20B1S Adapter: 0 ID: 0

Read mode : Secure
Utilize accurate stream : Yes
Defeat audio cache : Yes
Make use of C2 pointers : No

Read offset correction : 6
Overread into Lead-In and Lead-Out : No
Fill up missing offset samples with silence : Yes
Delete leading and trailing silent blocks : No
Null samples used in CRC calculations : Yes
Used interface : Native Win32 interface for Win NT & 2000

Used output format : Internal WAV Routines
Sample format : 44.100 Hz; 16 Bit; Stereo

TOC of the extracted CD

Track | Start | Length | Start sector | End sector
---------------------------------------------------------
1 | 0:00.00 | 0:32.58 | 0 | 2457
2 | 0:32.58 | 3:32.24 | 2458 | 18381
3 | 4:05.07 | 5:39.22 | 18382 | 43828
4 | 9:44.29 | 3:42.38 | 43829 | 60516
5 | 13:26.67 | 4:09.37 | 60517 | 79228
6 | 17:36.29 | 3:46.24 | 79229 | 96202
7 | 21:22.53 | 4:40.71 | 96203 | 117273
8 | 26:03.49 | 5:09.24 | 117274 | 140472
9 | 31:12.73 | 6:58.24 | 140473 | 171846
10 | 38:11.22 | 3:57.60 | 171847 | 189681
11 | 42:09.07 | 4:04.31 | 189682 | 208012
12 | 46:13.38 | 4:19.74 | 208013 | 227511
13 | 50:33.37 | 3:10.24 | 227512 | 241785
14 | 53:43.61 | 3:15.26 | 241786 | 256436
15 | 56:59.12 | 4:45.52 | 256437 | 277863
16 | 61:44.64 | 3:35.47 | 277864 | 294035
17 | 65:20.36 | 4:38.46 | 294036 | 314931

Range status and errors

Selected range

Filename C:\Users\ubuntu\Desktop\ОЯК\2006 - Шляхи\Оркеstр Янки Козир - Шляхи (2006).wav

Peak level 100.0 %
Extraction speed 7.5 X
Range quality 100.0 %
Test CRC 6F4F6DA8
Copy CRC 6F4F6DA8
Copy OK

No errors occurred

AccurateRip summary

Track 1 not present in database
Track 2 not present in database
Track 3 not present in database
Track 4 not present in database
Track 5 not present in database
Track 6 not present in database
Track 7 not present in database
Track 8 not present in database
Track 9 not present in database
Track 10 not present in database
Track 11 not present in database
Track 12 not present in database
Track 13 not present in database
Track 14 not present in database
Track 15 not present in database
Track 16 not present in database
Track 17 not present in database

None of the tracks are present in the AccurateRip database

End of status report

---- CUETools DB Plugin V2.1.3

[CTDB TOCID: lhZoCI4AK5MwhUXTUG_aQ67u3Ik-] disk not present in database, Submit result: lhZoCI4AK5MwhUXTUG_aQ67u3Ik- has been uploaded
Куе-файл
REM DATE 2006
REM DISCID EC106711
REM COMMENT "ExactAudioCopy v1.0b3"
PERFORMER "Оркеstр Янки Козир"
TITLE "Шляхи"
FILE "Оркеstр Янки Козир - Шляхи (2006).flac" WAVE
TRACK 01 AUDIO
TITLE "Прелюдія"
PERFORMER "Оркеstр Янки Козир"
INDEX 01 00:00:00
TRACK 02 AUDIO
TITLE "Шляхи (вступ)"
PERFORMER "Оркеstр Янки Козир"
INDEX 01 00:32:58
TRACK 03 AUDIO
TITLE "Шляхи"
PERFORMER "Оркеstр Янки Козир"
INDEX 01 04:05:07
TRACK 04 AUDIO
TITLE "Вовчиця я!"
PERFORMER "Оркеstр Янки Козир"
INDEX 01 09:44:29
TRACK 05 AUDIO
TITLE "Зозуленька"
PERFORMER "Оркеstр Янки Козир"
INDEX 01 13:26:67
TRACK 06 AUDIO
TITLE "Відти гора"
PERFORMER "Оркеstр Янки Козир"
INDEX 01 17:36:29
TRACK 07 AUDIO
TITLE "Вівці ж мої вівці"
PERFORMER "Оркеstр Янки Козир"
INDEX 01 21:22:53
TRACK 08 AUDIO
TITLE "Я тікаю!"
PERFORMER "Оркеstр Янки Козир"
INDEX 01 26:03:49
TRACK 09 AUDIO
TITLE "Політ коршака"
PERFORMER "Оркеstр Янки Козир"
INDEX 01 31:12:73
TRACK 10 AUDIO
TITLE "Пекельний шлях"
PERFORMER "Оркеstр Янки Козир"
INDEX 01 38:11:22
TRACK 11 AUDIO
TITLE "Пси свободи"
PERFORMER "Оркеstр Янки Козир"
INDEX 01 42:09:07
TRACK 12 AUDIO
TITLE "Діти сонця"
PERFORMER "Оркеstр Янки Козир"
INDEX 01 46:13:38
TRACK 13 AUDIO
TITLE "Ой повиходьте у Вештаньки"
PERFORMER "Оркеstр Янки Козир"
INDEX 01 50:33:37
TRACK 14 AUDIO
TITLE "Перші квіточки весни"
PERFORMER "Оркеstр Янки Козир"
INDEX 01 53:43:61
TRACK 15 AUDIO
TITLE "ЯНЕБУДУКАВУПИЛА"
PERFORMER "Оркеstр Янки Козир"
INDEX 01 56:59:12
TRACK 16 AUDIO
TITLE "Трави нема"
PERFORMER "Оркеstр Янки Козир"
INDEX 01 61:44:64
TRACK 17 AUDIO
TITLE "Всі сплять"
PERFORMER "Оркеstр Янки Козир"
INDEX 01 65:20:36
Спектр
2007 — Мати
Пісні:
    01. В 4-х стінах (Вступ) /музика: ОЯК/
    02. В 4-х стінах /слова: Н. Громостика, Олександр Литовка; музика: ОЯК/
    03. Почуття /слова: Олександр Литовка; музика: ОЯК/
    04. еР і Джі (вступ) /музика: Сергій Радзецький/
    05. еР і Джей /слова: Олександр Литовка; музика: ОЯК/
    06. Цвіте терен /українська народна пісня/
    07. Земле моя /слова: Іван Франко; музика: Янка Козир/
    08. Мати /слова: Олександр Литовка; музика: Володимир Баришполець, ОЯК/
    09. Свічечка /слова: Олександр Литовка; музика: за мотивами народних пісень/
    10. Два когути червоненькі /українська народна пісня/
    11. Латимба /слова: Олександр Литовка; музика: ОЯК/
    12. Кінець /слова: Олександр Литовка; музика: ОЯК/
    13. Мати (фінал) /слова: Олександр Литовка; музика: Марина Литвинова/
Тривалість: 01:04:02
Бітрейт: 913 кб/с
Видавець: МА "Наш формат", гурт
УМКА про альбом
Потужна краса цієї платівки – надзвичайна. Поліфонічна стихія набуває тут такої глибини і розмаху, що просто змітає рамки – приголомшує. Відчуття схоже з тим, коли стоїш на горі проти вітру такої сили, що можеш на нього спиратися, розкриваєш обійми – і раптом всім єством своїм чуєш його справжній голос, безмежний спів живої течії... Оркестр Янки Козир (ОЯК) ніколи не скаржився на нестачу ідей, але цього разу, здається, зробив дещо незвичне навіть для себе. І, хоча сама Янка каже, що альбом "Мати" вийшов порівняно легким – все дуже, знаєте, відносно. Це анітрохи не легкість поп-музики, мова про інше. Тут дійсно вражає легкість, з якою ОЯК почувається у складній музичній матерії – і з якою занурює в неї слухача, захоплює всю увагу без залишку, просто і невимушено змушує тремтіти, тамувати подих, балансувати на тонкому лезі уваги. Співпереживати – по-справжньому, аж до катарсису. Так, це не просто альбом, а – драма, ворожіння симфорокове, в якому народження і смерть не протиставляються навіть, а просто як такі не існують, бо вони – це одне ціле, нерозривне, невимовне слово світу. Оркестр Янки Козир не просто створює музику – він творить власну містерію звуку, живу і яскраву. І настільки насиченою, щільною, збагаченою постає тут музична матерія, що здається – вона є зрима, її можна торкнутись, нею можна дихати під водою...
Антон Йожик Лейба
Лоґ-файл
Exact Audio Copy V1.0 beta 3 from 29. August 2011

EAC extraction logfile from 6. February 2012, 22:18

Оркеstр Янки Козир / Мати

Used drive : ASUS DRW-20B1S Adapter: 0 ID: 0

Read mode : Secure
Utilize accurate stream : Yes
Defeat audio cache : Yes
Make use of C2 pointers : No

Read offset correction : 6
Overread into Lead-In and Lead-Out : No
Fill up missing offset samples with silence : Yes
Delete leading and trailing silent blocks : No
Null samples used in CRC calculations : Yes
Used interface : Native Win32 interface for Win NT & 2000

Used output format : Internal WAV Routines
Sample format : 44.100 Hz; 16 Bit; Stereo

TOC of the extracted CD

Track | Start | Length | Start sector | End sector
---------------------------------------------------------
1 | 0:00.00 | 2:36.15 | 0 | 11714
2 | 2:36.15 | 5:43.74 | 11715 | 37513
3 | 8:20.14 | 4:13.24 | 37514 | 56512
4 | 12:33.38 | 3:22.49 | 56513 | 71711
5 | 15:56.12 | 7:03.44 | 71712 | 103480
6 | 22:59.56 | 5:18.58 | 103481 | 127388
7 | 28:18.39 | 3:21.71 | 127389 | 142534
8 | 31:40.35 | 9:26.43 | 142535 | 185027
9 | 41:07.03 | 3:12.24 | 185028 | 199451
10 | 44:19.27 | 4:15.50 | 199452 | 218626
11 | 48:35.02 | 9:13.18 | 218627 | 260119
12 | 57:48.20 | 4:30.16 | 260120 | 280385
13 | 62:18.36 | 1:44.23 | 280386 | 288208

Range status and errors

Selected range

Filename C:\Users\ubuntu\Desktop\ОЯК\Оркеstр Янки Козир - Мати (2007).wav

Peak level 100.0 %
Extraction speed 7.3 X
Range quality 100.0 %
Test CRC 665E26EB
Copy CRC 665E26EB
Copy OK

No errors occurred

AccurateRip summary

Track 1 accurately ripped (confidence 1) [54932894] (AR v1)
Track 2 accurately ripped (confidence 1) [C41B3BC9] (AR v1)
Track 3 accurately ripped (confidence 1) [F14948E7] (AR v1)
Track 4 accurately ripped (confidence 1) [E3B8CC5A] (AR v1)
Track 5 accurately ripped (confidence 1) [4B566908] (AR v1)
Track 6 accurately ripped (confidence 1) [D851003F] (AR v1)
Track 7 accurately ripped (confidence 1) [DD649B07] (AR v1)
Track 8 accurately ripped (confidence 1) [1CD0D22E] (AR v1)
Track 9 accurately ripped (confidence 1) [F906A4B9] (AR v1)
Track 10 accurately ripped (confidence 1) [C60CCCEF] (AR v1)
Track 11 accurately ripped (confidence 1) [BF4BB16C] (AR v1)
Track 12 accurately ripped (confidence 1) [5E3E41C2] (AR v1)
Track 13 accurately ripped (confidence 1) [1F8349A0] (AR v1)

All tracks accurately ripped

End of status report

---- CUETools DB Plugin V2.1.3

[CTDB TOCID: v2eR8v5wz0Vcn.f4affgMU4JEIs-] disk not present in database, Submit result: v2eR8v5wz0Vcn.f4affgMU4JEIs- has been uploaded
Куе-файл
REM DATE 2007
REM DISCID B20F020D
REM COMMENT "ExactAudioCopy v1.0b3"
PERFORMER "Оркеstр Янки Козир"
TITLE "Мати"
FILE "Оркеstр Янки Козир - Мати (2007).flac" WAVE
TRACK 01 AUDIO
TITLE "В 4-х стінах (Вступ)"
PERFORMER "Оркеstр Янки Козир"
INDEX 01 00:00:00
TRACK 02 AUDIO
TITLE "В 4-х стінах"
PERFORMER "Оркеstр Янки Козир"
INDEX 00 02:35:64
INDEX 01 02:36:15
TRACK 03 AUDIO
TITLE "Почуття"
PERFORMER "Оркеstр Янки Козир"
INDEX 00 08:20:09
INDEX 01 08:20:14
TRACK 04 AUDIO
TITLE "еР і Джі (вступ)"
PERFORMER "Оркеstр Янки Козир"
INDEX 00 12:33:32
INDEX 01 12:33:38
TRACK 05 AUDIO
TITLE "еР і Джей"
PERFORMER "Оркеstр Янки Козир"
INDEX 00 15:56:04
INDEX 01 15:56:12
TRACK 06 AUDIO
TITLE "Цвіте терен"
PERFORMER "Оркеstр Янки Козир"
INDEX 00 22:59:48
INDEX 01 22:59:56
TRACK 07 AUDIO
TITLE "Земле моя"
PERFORMER "Оркеstр Янки Козир"
INDEX 00 28:18:34
INDEX 01 28:18:39
TRACK 08 AUDIO
TITLE "Мати"
PERFORMER "Оркеstр Янки Козир"
INDEX 00 31:40:32
INDEX 01 31:40:35
TRACK 09 AUDIO
TITLE "Свічечка"
PERFORMER "Оркеstр Янки Козир"
INDEX 00 41:06:73
INDEX 01 41:07:03
TRACK 10 AUDIO
TITLE "Два когути червоненькі"
PERFORMER "Оркеstр Янки Козир"
INDEX 01 44:19:27
TRACK 11 AUDIO
TITLE "Латимба"
PERFORMER "Оркеstр Янки Козир"
INDEX 00 48:34:74
INDEX 01 48:35:02
TRACK 12 AUDIO
TITLE "Кінець"
PERFORMER "Оркеstр Янки Козир"
INDEX 01 57:48:20
TRACK 13 AUDIO
TITLE "Мати (фінал)"
PERFORMER "Оркеstр Янки Козир"
INDEX 00 62:17:33
INDEX 01 62:18:36
Спектр
Загальна тривалість: 02:13:52
Мова: українська
Аудіо-кодек: FLAC
Бітрейт: lossless (див. поальбомно)
Джерело: , за надання одного з дисків щира дяка користувачеві jozhyk_bo
Додаткова інформація:
Про гурт
Стиль: радісне театралізоване арт-готік-фолк-класик-рок-шоу.
Мова: українська (німецька, англійська).
Потенційні слухачі: вік 16—45 років, студентство, творча інтелігенція, робітники.
Професійне кредо: динаміка, експеримент, професіоналізм.
Девіз: Бог! Любов!! Україна!!!
За оцінками провідних фахівців шоу-бізнесу України на сьогоднішній день на теренах СНД аналогів даному проекту немає.
Якщо Ви бажаєте завантажити альбом "Шляхи" у форматі MP3,
то Вам СЮДИ!


Якщо Ви справді бажаєте підтримати українське - після прослуховування, якщо музика вам сподобалась, придбайте ліцензійний диск.
Підтримаймо вітчизняних виконавців!


Золотий реліз (завантажене не впливає на рейтинг)
 Трекер:    Зареєстрований   

Завантажити / скачати українську музику



відео для новачків



 Зареєстрований:   2012-02-12 16:29
 Розмір:   857 MB 
 Оцінка музики:   10/10 (Голосів: 10)
   
weber 
Почесний гуртомівець


З нами з: 03.08.08
Востаннє: 07.12.16
Повідомлень: 7003

2009-12-24 21:32  
jinotot написано:
Видавець: Tempora

вони ж наче друкують книжки

jinotot 
Почесний оцифрувальник літератури


З нами з: 28.01.09
Востаннє: 04.12.16
Повідомлень: 3235

2009-12-24 21:47  
weber, ну, саме не книжковому форумі я цей диск і купив Happy А ще їхні (видавництва) диски продаються у книгарні "Є!"
Але це правда диск, а не книжка Wide grin І справді -- видавництво саме це. Там в роздачі є скани обкладинки. Можеш перевірити Wink (2)

weber 
Почесний гуртомівець


З нами з: 03.08.08
Востаннє: 07.12.16
Повідомлень: 7003

2009-12-24 22:10  
jinotot, ну качаю послухаю, музика специфічна, але на сцені це щось
Nomad 
VIP


З нами з: 17.03.08
Востаннє: 08.02.12
Повідомлень: 513

2010-01-25 19:51  
ого, тра кочати ))
aimtoknow 
VIP


З нами з: 29.11.09
Востаннє: 14.04.11
Повідомлень: 578

2010-07-04 20:55  
Наживо більше вражає. А так якось все сумбурно, хоча час від часу цікаво.
jinotot 
Почесний оцифрувальник літератури


З нами з: 28.01.09
Востаннє: 04.12.16
Повідомлень: 3235

2010-07-06 22:14  
aimtoknow написано:
Наживо більше вражає.
Згоден повністю. Вони в альбомах якісь невдалі версії пісень позаписували. Мені, наприклад, взагалі найбільше подобаються ті, що гуляють мережею як підбірка ранніх демо-записів. Ну, і концерти — то щось! Тільки от після кожного концерту ОЯК я пригадую анекдот:
— Синку, не ходи на дискотєку, бо оглохнеш!
— Дякую, мамо, я вже пообідав!)))

А ще мої друзі чомусь прозвали цей гурт жіночою версією Рамштайну))

weber 
Почесний гуртомівець


З нами з: 03.08.08
Востаннє: 07.12.16
Повідомлень: 7003

2010-07-06 22:53  
Ну і після живих концертів записи сприймаються по іншому, те що раніше не слухалося йде на ура.
aimtoknow 
VIP


З нами з: 29.11.09
Востаннє: 14.04.11
Повідомлень: 578

2010-07-07 18:05  
Я на живому виступі був лише раз (на минулорічному Антонич фесті), тож може моя думки буде не дуже об'єктивною. Але мені здається, що ОЯК це один з тих колективів, який повноцінно себе розкриває лише наживо; хоча якщо точніше сказати, то це слухач/глядач в повній мірі сприймає гурт лише перед собою в реальному часі. Так як команда лиш наполовину являється музичною; інша частина - це візуальне представлення. А музичне+візуальне=емоційне. Тож як би класно вони не писали свої платівки, передати в повній мірі свою творчість, думаю, їм не вдасться.
weber 
Почесний гуртомівець


З нами з: 03.08.08
Востаннє: 07.12.16
Повідомлень: 7003

2010-07-07 20:27  
aimtoknow написано:
Я на живому виступі був лише раз (на минулорічному Антонич фесті)

хм, я власне так само
aimtoknow написано:
Тож як би класно вони не писали свої платівки, передати в повній мірі свою творчість, думаю, їм не вдасться.

хіба відео.

jinotot 
Почесний оцифрувальник літератури


З нами з: 28.01.09
Востаннє: 04.12.16
Повідомлень: 3235

2010-07-07 20:35  
Нещодавно в "44" був бомбезний [url]безкоштовний[/url] концерт ОЯК. А перед тим вони були на фестивалі патріотичної пісні в Могилянці, також безкоштовно. Зараз в Польщі гастролюють, здається. Вловити їх наживо не так і складно, головне — слідкувати за афішами.
Lev 
VIP


З нами з: 14.10.09
Востаннє: 05.12.16
Повідомлень: 1819

2010-10-02 21:33  
jinotot

Завтра в Роут66 їхній халявний концерт
http://www.route66.com.ua/index.php?c=afisha/afisha.php&AID=338

jinotot 
Почесний оцифрувальник літератури


З нами з: 28.01.09
Востаннє: 04.12.16
Повідомлень: 3235

2010-10-02 21:59  
Lev, дякую за інфо, але я ще від літнього халявного концерту ОЯК в 44 не відійшов)) Ну, і від виступу на ЗахоДі Happy Круто, звісно, втім хочеться на разі спокою й відпочинку — ось, навіть на РокСіч не пішов. Та й пізнувато й далекувато... Тому — нє судьба, як то кажуть...

Так, люди, візьміть хтось із мене чесне хвостате слово, що я ріпну нарешті альбом "Мати" і таки зроблю дискографію... А то з весни лежить (та й не тільки він), а я всьо ніяк... І соромно, і відати б уже давно треба... Варто якось знайти час та й зайнятися цим вашим піратством Rolleyes (2) Happy

Lev 
VIP


З нами з: 14.10.09
Востаннє: 05.12.16
Повідомлень: 1819

2010-10-03 00:34  
jinotot написано:
Так, люди, візьміть хтось із мене чесне хвостате слово, що я ріпну нарешті альбом "Мати" і таки зроблю дискографію... А то з весни лежить (та й не тільки він), а я всьо ніяк... І соромно, і відати б уже давно треба... Варто якось знайти час та й зайнятися цим вашим піратством


можеш так сильно не перейматись - він і в мене є на диску, але от на вінті місця малувато.
а шо ще є?

jinotot 
Почесний оцифрувальник літератури


З нами з: 28.01.09
Востаннє: 04.12.16
Повідомлень: 3235

2010-10-03 20:51  
Lev написано:
можеш так сильно не перейматись - він і в мене є на диску, але от на вінті місця малувато.
Все ж хочу зробити власний ріп, оновити цей і зробити дискографію.

Lev написано:
а шо ще є?
Та трохи всякого є — зараз ліньки перераховувати. Скоро вийде нова Убунту — поставимо, налаштємо все як слід, та й візьмуся до справи. Колись-то воно буде... Rolleyes (1)
aimtoknow 
VIP


З нами з: 29.11.09
Востаннє: 14.04.11
Повідомлень: 578

2010-10-04 12:01  
jinotot написано:
Скоро вийде нова Убунту — поставимо

Поважаю Happy.

Lev 
VIP


З нами з: 14.10.09
Востаннє: 05.12.16
Повідомлень: 1819

2010-10-04 21:03  
jinotot написано:
Все ж хочу зробити власний ріп, оновити цей і зробити дискографію.


добре, я тобі довіряю цю тему Happy

jinotot 
Почесний оцифрувальник літератури


З нами з: 28.01.09
Востаннє: 04.12.16
Повідомлень: 3235

2010-10-04 22:08  
Lev, дякую за довіру Happy

aimtoknow написано:
Поважаю
Та, напевно, я не заслуговую, бо, по-перше, не сам оновлюватимусь, а по-друге, ріпатиму все одно, мабуть, у вінді, бо вайн мені не сильно допомагає при слабенькій апаратній частині, а лінуксові аналоги ЕАС дехто вважає некошерними і знов на мене казатиме, що я борюся проти lossless’у на Толоці Happy Втім, побачимо, як воно буде...
jinotot 
Почесний оцифрувальник літератури


З нами з: 28.01.09
Востаннє: 04.12.16
Повідомлень: 3235

2012-02-12 16:33  
Трапилося диво!
Не пройшло і трьох років, як я нарешті склепав дискографію Happy
Згодом ше додам спектри до оформлення і уточню бітрейт.

ssTAss 
Модератор музики


З нами з: 05.07.08
Востаннє: 07.12.16
Повідомлень: 10947

2012-02-12 16:36  
додайте загальну тривалість і обкладинки до кожного альбому
jinotot 
Почесний оцифрувальник літератури


З нами з: 28.01.09
Востаннє: 04.12.16
Повідомлень: 3235

2012-02-12 16:54  
Точно! Знав же, що щось та й забуду Happy

До речі, якщо хтось матиме час та натхнення сконвертувати в МР3 й зробити аналогічну дискографію — не заперечую і навіть кодами для оформлення допоможу, бо я тим займатися не планую.

Додано через 9 хвилин 59 секунд:

ssTAss’е, зробив, наче. Спектри і уточнений бітрейт — згодом.

А нині ще буде один реліз в музиці. І в літературі кілька, якщо вистачить сил Happy І якщо трекер працюватиме))))

gosha.samovar 
VIP


З нами з: 08.09.10
Востаннє: 06.12.16
Повідомлень: 400

2014-03-23 20:17  
Друзі, дайте, будь ласка, завантажити.
Ваш часовий пояс: GMT + 2 Години

Нова тема   Відповісти