Завантажити та скачати торренти українською


VA - Помаранчеві пісні (2004) [FLAC] | Rock/Pop/Folk

Нові коментарі

Нова тема   Відповісти
Останній раз роздавалося Waiter (2015-06-09)
Автор Повідомлення
jinotot 
Почесний оцифрувальник літератури


З нами з: 28.01.09
Востаннє: 04.12.16
Повідомлень: 3235

2009-11-22 23:56  
VA - Помаранчеві пісні (2004) [FLAC] | Rock/Pop/Folk



Стиль: Rock, Pop-Rock, Pop, Hip-Hop, Folk
Країна: Україна
Видавець: Comp Music / Lavina Music
Виконавці:
гурти "Океан Ельзи", "Воплі Відоплясова", "Мандри", "Гайдамаки", "Тартак", "ТНМК", "Таліта Кум", "Mad Heads",
а також Руслана, Росава, Тарас Петриненко та Олександр Пономарьов

Пісні:
    01. Океан Ельзи - Майже весна
    02. Руслана - Дикі танці
    03. Воплі Відоплясова - Музика дика
    04. Мандри - Калина
    05. Гайдамаки - Богуслав
    06. Тартак - Я не хочу
    07. Таліта Кум - Літай
    08. Танок на Майдані Конго - Вавілон
    09. Mad Heads - Надія є
    10. Олександр Пономарьов - Човен
    11. Росава - Наша Україна
    12. Тарас Петриненко - Україна

Тривалість: 00:49:03
Мова: українська
Аудіо-кодек: FLAC
Бітрейт: lossless (~ 1024 кб/с)
Джерело: власний диск
Лоґ-файл
Exact Audio Copy V1.0 beta 3 from 29. August 2011

EAC extraction logfile from 5. February 2012, 21:54

Various Artists / Помаранчеві пісні (2004)

Used drive : ASUS DRW-20B1S Adapter: 0 ID: 0

Read mode : Secure
Utilize accurate stream : Yes
Defeat audio cache : Yes
Make use of C2 pointers : No

Read offset correction : 6
Overread into Lead-In and Lead-Out : No
Fill up missing offset samples with silence : Yes
Delete leading and trailing silent blocks : No
Null samples used in CRC calculations : Yes
Used interface : Native Win32 interface for Win NT & 2000

Used output format : Internal WAV Routines
Sample format : 44.100 Hz; 16 Bit; Stereo

TOC of the extracted CD

Track | Start | Length | Start sector | End sector
---------------------------------------------------------
1 | 0:00.00 | 4:11.30 | 0 | 18854
2 | 4:11.30 | 3:03.17 | 18855 | 32596
3 | 7:14.47 | 3:16.74 | 32597 | 47370
4 | 10:31.46 | 3:55.03 | 47371 | 64998
5 | 14:26.49 | 4:18.36 | 64999 | 84384
6 | 18:45.10 | 4:14.52 | 84385 | 103486
7 | 22:59.62 | 3:52.25 | 103487 | 120911
8 | 26:52.12 | 4:19.60 | 120912 | 140396
9 | 31:11.72 | 4:37.10 | 140397 | 161181
10 | 35:49.07 | 4:24.64 | 161182 | 181045
11 | 40:13.71 | 3:26.35 | 181046 | 196530
12 | 43:40.31 | 5:22.57 | 196531 | 220737

Range status and errors

Selected range

Filename C:\Users\ubuntu\Desktop\Помаранчеві пісні (2004) [FLAC]\Помаранчеві пісні (2004).wav

Peak level 100.0 %
Extraction speed 6.6 X
Range quality 99.9 %
Test CRC 7D15A8A3
Copy CRC 7D15A8A3
Copy OK

No errors occurred

AccurateRip summary

Track 1 accurately ripped (confidence 1) [673C4B01] (AR v1)
Track 2 accurately ripped (confidence 1) [2FA6D3E5] (AR v1)
Track 3 accurately ripped (confidence 1) [BEE33869] (AR v1)
Track 4 accurately ripped (confidence 1) [E06CABB5] (AR v1)
Track 5 accurately ripped (confidence 1) [F059A4AE] (AR v1)
Track 6 accurately ripped (confidence 1) [790F4B40] (AR v1)
Track 7 accurately ripped (confidence 1) [1647A0E6] (AR v1)
Track 8 accurately ripped (confidence 1) [E68FFF2E] (AR v1)
Track 9 accurately ripped (confidence 1) [7848BDCC] (AR v1)
Track 10 accurately ripped (confidence 1) [BABF8679] (AR v1)
Track 11 accurately ripped (confidence 1) [AF169596] (AR v1)
Track 12 accurately ripped (confidence 1) [3A166643] (AR v1)

All tracks accurately ripped

End of status report

---- CUETools DB Plugin V2.1.3

[CTDB TOCID: HuCP3yAOIGYyAkihKbNnBs.Bm58-] disk not present in database, Submit result: HuCP3yAOIGYyAkihKbNnBs.Bm58- has been uploaded
Куе-файл
REM DATE 2004
REM DISCID 930B7F0C
REM COMMENT "ExactAudioCopy v1.0b3"
PERFORMER "Various Artists"
TITLE "Помаранчеві пісні (2004)"
FILE "Various Artists - Orange Songs (2004).flac" WAVE
TRACK 01 AUDIO
TITLE "Майже весна"
PERFORMER "Океан Ельзи"
FLAGS DCP
INDEX 01 00:00:00
TRACK 02 AUDIO
TITLE "Дикі танці"
PERFORMER "Руслана"
FLAGS DCP
INDEX 01 04:11:30
TRACK 03 AUDIO
TITLE "Музика дика"
PERFORMER "ВВ"
FLAGS DCP
INDEX 01 07:14:47
TRACK 04 AUDIO
TITLE "Калина"
PERFORMER "Мандри"
FLAGS DCP
INDEX 01 10:31:46
TRACK 05 AUDIO
TITLE "Богуслав"
PERFORMER "Гайдамаки"
FLAGS DCP
INDEX 01 14:26:49
TRACK 06 AUDIO
TITLE "Я не хочу"
PERFORMER "Тартак"
FLAGS DCP
INDEX 01 18:45:10
TRACK 07 AUDIO
TITLE "Літай"
PERFORMER "Таліта Кум"
FLAGS DCP
INDEX 01 22:59:62
TRACK 08 AUDIO
TITLE "Вавилон"
PERFORMER "ТНМК"
FLAGS DCP
INDEX 01 26:52:12
TRACK 09 AUDIO
TITLE "Надія є"
PERFORMER "Mad Heads"
FLAGS DCP
INDEX 01 31:11:72
TRACK 10 AUDIO
TITLE "Човен"
PERFORMER "Олександр Пономарьов"
FLAGS DCP
INDEX 01 35:49:07
TRACK 11 AUDIO
TITLE "Наша Україна"
PERFORMER "Росава"
FLAGS DCP
INDEX 01 40:13:71
TRACK 12 AUDIO
TITLE "Україна"
PERFORMER "Тарас Петриненко"
FLAGS DCP
INDEX 01 43:40:31
Спектр
Якщо Ви бажаєте завантажити цей реліз в MP3 320 кб/с, то Вам сюди!


Якщо Ви справді бажаєте підтримати українське - після прослуховування, якщо музика вам сподобалась, придбайте ліцензійний диск.
Підтримаймо вітчизняних виконавців!


Срібний реліз (на рейтинг впливає 50% завантаженого)
 Трекер:    Зареєстрований   

Завантажити / скачати українську музику



відео для новачків



 Зареєстрований:   2012-02-12 19:46
 Розмір:   364 MB 
 Оцінка музики:   10/10 (Голосів: 5)
   
weber 
Почесний гуртомівець


З нами з: 03.08.08
Востаннє: 02.12.16
Повідомлень: 7003

2009-11-23 00:07  
Хм до річниці якраз
jinotot 
Почесний оцифрувальник літератури


З нами з: 28.01.09
Востаннє: 04.12.16
Повідомлень: 3235

2009-11-23 00:12  
weber, а то! Я навмисне чекав Happy
Оце сто років не слухав цей диск, а зараз увімкнув і згадав, як було класно і невимовно добре 5 років тому! Rolleyes (2) Цього словами не передати! ...і політика тут зовсім ні до чого Happy

Маю ще диск із всяким різним мультимедіа, присвяченим Помаранчевій Революції. Якщо комусь цікаво, то викладу, от тільки куди його -- в який розділ?

weber 
Почесний гуртомівець


З нами з: 03.08.08
Востаннє: 02.12.16
Повідомлень: 7003

2009-11-23 00:19  
jinotot, завжди є інше. Теж десь маю флак на комп'ютері.
jinotot написано:
Цього словами не передати! ...і політика тут зовсім ні до чого Happy

Таки так час швидко летить, хоча малий я ще був тоді все таки. До речі в тижні помилка з датою Happy рік не той

jinotot 
Почесний оцифрувальник літератури


З нами з: 28.01.09
Востаннє: 04.12.16
Повідомлень: 3235

2009-11-23 00:48  
weber, так в "Тижні" також пише, що Україна з Грецією зіграла 0:0 Wide grin
Мабуть, вони всією редакцією щось святкують, тож на такі дрібниці не зважають)))
weber написано:
jinotot, завжди є інше.
Угу, я про цей розділ теж подумав. Я ще поміркую, чи викладати той диск -- щось він занадто заполітизований, як на мене, та й що з ним робити в Лінкуксі я поки не зрозумів Happy Автозапуск розрахований на вінду)))
weber написано:
Таки так час швидко летить, хоча малий я ще був тоді все таки.
Ех, а я тоді був саме на першому курсі, тож, можливо, саме тому так добре запам'ятав ті часи і завжди буду відгукуватись про них позитивно. І навіть зараз, знаючи, на що це все обернеться, я ніколи не відмовився б від можливості повторити усе те ще раз! Happy
ssTAss 
Модератор музики


З нами з: 05.07.08
Востаннє: 05.12.16
Повідомлень: 10938

2009-11-23 11:54  
jinotot написано:
09. Mad Heads - Надія є

цю пісню виконує Mad Heads XL

jinotot 
Почесний оцифрувальник літератури


З нами з: 28.01.09
Востаннє: 04.12.16
Повідомлень: 3235

2009-11-23 13:24  
ssTAss, а на диску пише просто Mad Heads Happy
І у вбудованих теґах, які я, правда, переробив, теж пише Mad Heads.
А Mad Heads XL у якому році з'явились?

Додано через 8 хвилин 37 секунд:

О! А на УМці пише, шо Mad Heads XL Happy Happy Happy
Ага! Та ж таки УМКА пише про цей гурт таке:
УМКА написано:
Група Mad Heads XL утворилася в лютому 2004 року на базі відомого українського тріо Mad Heads.
значить на Майдані співали вже Mad Heads XL.
Що ж робити? Лишити, як на диску, чи виправити, як правильно?

ssTAss 
Модератор музики


З нами з: 05.07.08
Востаннє: 05.12.16
Повідомлень: 10938

2009-11-23 13:30  
йдемо на оф сайт і дивимось... або на дискографію Mad Heads чи Mad Heads XL і бачимо, хто співає Надія є.. власне, ще тоді був проти розділення дискографії того гурту на два релізи (один сайт, одна дискографія)... от тепер і є нюанси)))
weber 
Почесний гуртомівець


З нами з: 03.08.08
Востаннє: 02.12.16
Повідомлень: 7003

2009-11-24 02:37  
jinotot написано:
Ех, а я тоді був саме на першому курсі, тож, можливо, саме тому так добре запам'ятав ті часи і завжди буду відгукуватись про них позитивно. І навіть зараз, знаючи, на що це все обернеться, я ніколи не відмовився б від можливості повторити усе те ще раз! Happy

ну вже ж не настільки малий Happy а так думаю аналогічно.
jinotot написано:
так в "Тижні" також пише, що Україна з Грецією зіграла 0:0 Wide grin

не помітив якось.

Vitality 
VIP


З нами з: 27.02.09
Востаннє: 23.10.15
Повідомлень: 331

2009-11-26 00:15  
охохо)) дійсно, отако сів і теж включив собі ці пісні, клас, нагадалися ті часи...
jinotot 
Почесний оцифрувальник літератури


З нами з: 28.01.09
Востаннє: 04.12.16
Повідомлень: 3235

2012-02-06 21:32  
Переробив ріп, оновив торрент. Тепер є лоґ, куе, все, як треба Happy
Bushido 
VIP


З нами з: 27.12.10
Востаннє: 20.05.16
Повідомлень: 278

2012-02-06 22:32  
Дай Бог, щоб ми знову прокинулися. Бо вже пора...
jinotot 
Почесний оцифрувальник літератури


З нами з: 28.01.09
Востаннє: 04.12.16
Повідомлень: 3235

2012-02-08 22:53  
йой! а обкладинки то я до роздачі додати забувся!
повиправляю крабозябри в куе, додам обкладинки, тоді оновлю торрент.
Звиняйте — шкліроз Happy

jinotot 
Почесний оцифрувальник літератури


З нами з: 28.01.09
Востаннє: 04.12.16
Повідомлень: 3235

2012-02-12 19:53  
Додав обкладинки до вмісту роздачі, змінив кодування log- та cue-файлів на utf-8.
Звиняйте за незручності! Rolleyes (2)

Ваш часовий пояс: GMT + 2 Години

Нова тема   Відповісти