Завантажити та скачати торренти українською


VA - Золота колекція. Українські народні пісні [3 випуски] (2004-2008) [APE] | Ethno

Нові коментарі

Нова тема   Відповісти
Сторінка:  1, 2  наступна
Автор Повідомлення
plyrvt 
VIP


З нами з: 03.12.08
Востаннє: 09.12.16
Повідомлень: 398

2009-10-16 19:29  
VA - Золота колекція. Українські народні пісні [3 випуски] (2004-2008) [APE] | Ethno



Стиль: Folk Ethno

Видавець: НРКУ / Astra records
Видання:
2004 - Українські народні пісні


01 - Їхав козак за дунай - 2:44
Володимир Зарков, Олександр Таранець
02 - Ніч яка місячна - 3:16
Костянтин Огнєвий
03 - Туман яром - 4:24
Державний український народний хор ім. Г. Вєрьовки
04 - Несе Галя воду - 3:46
Тріо 'Маренич'
05 - Вечір надворі - 2:24
Микола Кондратюк
06 - Ой, на горі два дубки - 2:21
Раїса Кириченко
07 - Гандзя - 2:29
Володимир Гришко
08 - Ой, дівчино, шумить гай - 2:09
Людмила Маковецька, Олександр Трофимчук
09 - Там, де Ятрань круто в'ється - 2:25
Микола Шопша
10 - Ішла дівча лучками - 2:33
Ніна Матвієнко
11 - Грицю, Грицю, до роботи - 1:56
Дмитро Гнатюк
12 - Ти до мене не ходи - 1:30
Євгенія Мірошниченко
13 - Казав мені батько - 1:18
Петро Топчій
14 - Місяць на небі - 3:12
Світлана Криворучко, Володимир Миркотан
15 - Ой, у вишневому садочку - 1:46
Ансамбль 'Чарівна'
16 - Із сиром пироги - 2:58
вокальний квартер 'Явір'
17 - Ой, я, молода, на базар ходила - 1:45
Лідія Кондрашевська
18 - Ой, чорна я си, чорна - 1:43
хор Новоазовського БК
19 - Чорнії брови, карії очі - 3:40
Валерій Буймістер
20 - Ой, гай, мати - 3:56
хор імені П. Майбороди НРКУ
21 - Била мене мати - 1:50
тріо сестер Книш
22 - Мав я раз дівчиноньку - 1:42
Фемій Мустафаєв
23 - Ти казала прийди, прийди - 1:23
Державна заслужена капела бандуристів України
24 - Взяв би я бандуру - 3:51
Анатолій Кочерга
25 - Ой, не світи, місяченьку - 2:40
Наталя Безкоровайна
26 - Ой, за гаєм, гаєм - 1:42
Ярослав Гнатюк
27 - Зоре моя вечірняя - 4:29
Діана Петриненко
28 - Розпрягайте, хлопці, коні - 3:13
Державна заслужена капела бандуристів України
29 - Ой, чий то кінь стоїть - 3:25
вокальний квартер 'Явір'
30 - Гей, наливайте - 1:34
Микола Шопша

Тривалість: 01:18:05
EAC Log
Exact Audio Copy V0.99 prebeta 5 from 4. May 2009

EAC extraction logfile from 16. October 2009, 16:25

Various / Українські народні пісні

Used drive : HL-DT-STDVDRAM GSA-H10N Adapter: 0 ID: 1

Read mode : Secure
Utilize accurate stream : Yes
Defeat audio cache : Yes
Make use of C2 pointers : No

Read offset correction : 667
Overread into Lead-In and Lead-Out : No
Fill up missing offset samples with silence : Yes
Delete leading and trailing silent blocks : No
Null samples used in CRC calculations : No
Used interface : Native Win32 interface for Win NT & 2000

Used output format : Monkey's Audio Lossless Encoder v3.99 DLL
Sample format : High Lossless Compression

TOC of the extracted CD

Track | Start | Length | Start sector | End sector
---------------------------------------------------------
1 | 0:00.00 | 2:43.49 | 0 | 12273
2 | 2:43.49 | 3:16.05 | 12274 | 26978
3 | 5:59.54 | 4:24.28 | 26979 | 46806
4 | 10:24.07 | 3:46.03 | 46807 | 63759
5 | 14:10.10 | 2:24.10 | 63760 | 74569
6 | 16:34.20 | 2:21.25 | 74570 | 85169
7 | 18:55.45 | 2:29.14 | 85170 | 96358
8 | 21:24.59 | 2:09.20 | 96359 | 106053
9 | 23:34.04 | 2:24.54 | 106054 | 116907
10 | 25:58.58 | 2:32.72 | 116908 | 128379
11 | 28:31.55 | 1:55.62 | 128380 | 137066
12 | 30:27.42 | 1:29.67 | 137067 | 143808
13 | 31:57.34 | 1:18.08 | 143809 | 149666
14 | 33:15.42 | 3:11.40 | 149667 | 164031
15 | 36:27.07 | 1:46.34 | 164032 | 172015
16 | 38:13.41 | 2:58.18 | 172016 | 185383
17 | 41:11.59 | 1:45.07 | 185384 | 193265
18 | 42:56.66 | 1:43.32 | 193266 | 201022
19 | 44:40.23 | 3:40.04 | 201023 | 217526
20 | 48:20.27 | 3:56.14 | 217527 | 235240
21 | 52:16.41 | 1:49.41 | 235241 | 243456
22 | 54:06.07 | 1:41.70 | 243457 | 251101
23 | 55:48.02 | 1:22.47 | 251102 | 257298
24 | 57:10.49 | 3:51.28 | 257299 | 274651
25 | 61:02.02 | 2:40.30 | 274652 | 286681
26 | 63:42.32 | 1:41.64 | 286682 | 294320
27 | 65:24.21 | 4:29.20 | 294321 | 314515
28 | 69:53.41 | 3:13.27 | 314516 | 329017
29 | 73:06.68 | 3:24.39 | 329018 | 344356
30 | 76:31.32 | 1:34.06 | 344357 | 351412

Range status and errors

Selected range

Filename E:\Music3\Ukrainian\Н\Народні пісні\2004 - Українські народні пісні\2004 - Українські народні пісні.ape

Peak level 95.9 %
Range quality 100.0 %
Test CRC D20BB8E5
Copy CRC D20BB8E5
Copy OK

No errors occurred

AccurateRip summary

Track 1 not present in database
Track 2 not present in database
Track 3 not present in database
Track 4 not present in database
Track 5 not present in database
Track 6 not present in database
Track 7 not present in database
Track 8 not present in database
Track 9 not present in database
Track 10 not present in database
Track 11 not present in database
Track 12 not present in database
Track 13 not present in database
Track 14 not present in database
Track 15 not present in database
Track 16 not present in database
Track 17 not present in database
Track 18 not present in database
Track 19 not present in database
Track 20 not present in database
Track 21 not present in database
Track 22 not present in database
Track 23 not present in database
Track 24 not present in database
Track 25 not present in database
Track 26 not present in database
Track 27 not present in database
Track 28 not present in database
Track 29 not present in database
Track 30 not present in database

None of the tracks are present in the AccurateRip database

End of status report
Audiochecker Log
AUDIOCHECKER v2.0 beta (build 457) - by Dester - [email protected]
~~~~~~~~~~~~~~~~~~~~~~~~~~~~~~~~~~
-=== НЕ РЕДАКТИРУЙТЕ ЭТОТ ФАЙЛ! ===-

Путь: ...\2004 - Українські народні пісні

01 -=- 01 - Їхав козак за дунай.wav -=- CDDA (100%)
02 -=- 02 - Ніч яка місячна.wav -=- CDDA (99%)
03 -=- 03 - Туман яром.wav -=- CDDA (100%)
04 -=- 04 - Несе Галя воду.wav -=- CDDA (100%)
05 -=- 05 - Вечір надворі.wav -=- CDDA (100%)
06 -=- 06 - Ой, на горі два дубки.wav -=- CDDA (100%)
07 -=- 07 - Гандзя.wav -=- CDDA (100%)
08 -=- 08 - Ой, дівчино, шумить гай.wav -=- CDDA (54%)
09 -=- 09 - Там, де Ятрань круто в'ється.wav -=- CDDA (100%)
10 -=- 10 - Ішла дівча лучками.wav -=- CDDA (100%)
11 -=- 11 - Грицю, Грицю, до роботи.wav -=- CDDA (100%)
12 -=- 12 - Ти до мене не ходи.wav -=- CDDA (100%)
13 -=- 13 - Казав мені батько.wav -=- CDDA (100%)
14 -=- 14 - Місяць на небі.wav -=- CDDA (100%)
15 -=- 15 - Ой, у вишневому садочку.wav -=- CDDA (99%)
16 -=- 16 - Із сиром пироги.wav -=- CDDA (100%)
17 -=- 17 - Ой, я, молода, на базар ходила.wav -=- CDDA (99%)
18 -=- 18 - Ой, чорна я си, чорна.wav -=- CDDA (100%)
19 -=- 19 - Чорнії брови, карії очі.wav -=- CDDA (100%)
20 -=- 20 - Ой, гай, мати.wav -=- CDDA (100%)
21 -=- 21 - Била мене мати.wav -=- CDDA (99%)
22 -=- 22 - Мав я раз дівчиноньку.wav -=- CDDA (100%)
23 -=- 23 - Ти казала прийди, прийди.wav -=- CDDA (100%)
24 -=- 24 - Взяв би я бандуру.wav -=- CDDA (100%)
25 -=- 25 - Ой, не світи, місяченьку.wav -=- CDDA (87%)
26 -=- 26 - Ой, за гаєм, гаєм.wav -=- CDDA (100%)
27 -=- 27 - Зоре моя вечірняя.wav -=- CDDA (87%)
28 -=- 28 - Розпрягайте, хлопці, коні.wav -=- CDDA (99%)
29 -=- 29 - Ой, чий то кінь стоїть.wav -=- CDDA (100%)
30 -=- 30 - Гей, наливайте.wav -=- CDDA (100%)

Сводка 97,43% CDDA

21635956
2006 - Українські народні пісні. Випуск 2


01 - Сусідка - 1:51
Капела бандуристів України
02 - Зеленеє жито, зелене - 3:21
тріо 'Либідь'
03 - Дівка в сінях стояла - 1:12
Михайло Раков, Олександр Таранець
04 - Глибока криниця - 1:49
Діана Петриненко
05 - Од Києва до Лубен - 2:50
Капела бандуристів України
06 - На вулиці скрипка грає - 1:41
Євгенія Мірошниченко
07 - Перелаз, перелаз - 2:20
Дюдмила Маковецька, Олександр Трофимчук
08 - Черевички мої - 1:32
Олена Слободяник
09 - Добрий вечір, дівчино - 1:24
Клавдія Радченко, Михайло Шевченко
10 - Тиха вода - 2:07
Раїса Кириченко
11 - Одна гора високая - 1:44
Володимир Зарков
12 - Іванку, Іванку - 2:45
тріо бандуристок - Лідія та Любов Криворотови та Раїса Горбатенко
13 - Якби мені не тиночки - 3:50
Костянтин Огнєвой
14 - Ой, у вишневому саду - 3:32
жіноча група Буковинського ансамблю пісні й танцю
15 - Тече річка невеличка - 3:00
Іван Чайченко
16 - Цвіте терен - 4:01
тріо бандуристок Українського радіо
17 - Стоїть гора високая - 4:35
Костянтин Огнєвой
18 - Йшли корови із діброви - 3:38
вокальний квартет Черкаського українського народного хору
19 - Дівчино кохана - 2:27
Олександр Загребельний
20 - Гиля, Гиля, сірі гуси - 3:23
Алла Кудлай
21 - Ішов козак яром - 1:47
Катерина Кінах та Ганна Литвиненко
22 - Лугом іду, коня веду - 2:17
Зоя Христич
23 - Горіла сосна - 2:24
Закарпатський народний хор
24 - Ой, важу я, важу - 3:22
Анатолій Мокренко
25 - І шумить, і гуде - 1:46
Марія Стефюк
26 - Побреду - 2:42
Капела бандуристів України
27 - Ой, на горі калина - 2:20
Діана і Василь Матющенки
28 - У сусіда хата біла - 2:13
Дмитро Гнатюк
29 - А я чорнява - 1:56
жіноча група Черкаського українського народного хору
30 - А мій милий чорнобривий - 3:18
Черкаський український народний хор
31 - Якби мені сивий кінь - 2:27
чоловіча група Поліського народного хору 'Льонок'

Тривалість: 01:19:36
EAC Log
Exact Audio Copy V0.99 prebeta 5 from 4. May 2009

EAC extraction logfile from 16. October 2009, 17:28

- / Українські народні пісні. Випуск 2

Used drive : HL-DT-STDVDRAM GSA-H10N Adapter: 0 ID: 1

Read mode : Secure
Utilize accurate stream : Yes
Defeat audio cache : Yes
Make use of C2 pointers : No

Read offset correction : 667
Overread into Lead-In and Lead-Out : No
Fill up missing offset samples with silence : Yes
Delete leading and trailing silent blocks : No
Null samples used in CRC calculations : No
Used interface : Native Win32 interface for Win NT & 2000

Used output format : Monkey's Audio Lossless Encoder v3.99 DLL
Sample format : High Lossless Compression

TOC of the extracted CD

Track | Start | Length | Start sector | End sector
---------------------------------------------------------
1 | 0:00.00 | 1:51.00 | 0 | 8324
2 | 1:51.00 | 3:21.03 | 8325 | 23402
3 | 5:12.03 | 1:12.05 | 23403 | 28807
4 | 6:24.08 | 1:49.12 | 28808 | 36994
5 | 8:13.20 | 2:50.04 | 36995 | 49748
6 | 11:03.24 | 1:41.08 | 49749 | 57331
7 | 12:44.32 | 2:20.05 | 57332 | 67836
8 | 15:04.37 | 1:32.07 | 67837 | 74743
9 | 16:36.44 | 1:24.06 | 74744 | 81049
10 | 18:00.50 | 2:07.01 | 81050 | 90575
11 | 20:07.51 | 1:44.00 | 90576 | 98375
12 | 21:51.51 | 2:45.18 | 98376 | 110768
13 | 24:36.69 | 3:50.08 | 110769 | 128026
14 | 28:27.02 | 3:32.03 | 128027 | 143929
15 | 31:59.05 | 3:00.06 | 143930 | 157435
16 | 34:59.11 | 4:01.04 | 157436 | 175514
17 | 39:00.15 | 4:35.05 | 175515 | 196144
18 | 43:35.20 | 3:38.01 | 196145 | 212495
19 | 47:13.21 | 2:27.07 | 212496 | 223527
20 | 49:40.28 | 3:23.02 | 223528 | 238754
21 | 53:03.30 | 1:47.04 | 238755 | 246783
22 | 54:50.34 | 2:17.12 | 246784 | 257070
23 | 57:07.46 | 2:24.02 | 257071 | 267872
24 | 59:31.48 | 3:22.02 | 267873 | 283024
25 | 62:53.50 | 1:46.06 | 283025 | 290980
26 | 64:39.56 | 2:42.03 | 290981 | 303133
27 | 67:21.59 | 2:20.07 | 303134 | 313640
28 | 69:41.66 | 2:13.11 | 313641 | 323626
29 | 71:55.02 | 1:56.05 | 323627 | 332331
30 | 73:51.07 | 3:18.14 | 332332 | 347195
31 | 77:09.21 | 2:27.09 | 347196 | 358229

Range status and errors

Selected range

Filename E:\Music3\Ukrainian\Н\Народні пісні\2006 - Українські народні пісні. Випуск 2\2006 - Українські народні пісні. Випуск 2.ape

Peak level 96.7 %
Range quality 100.0 %
Test CRC 390FE753
Copy CRC 390FE753
Copy OK

No errors occurred

AccurateRip summary

Track 1 not present in database
Track 2 not present in database
Track 3 not present in database
Track 4 not present in database
Track 5 not present in database
Track 6 not present in database
Track 7 not present in database
Track 8 not present in database
Track 9 not present in database
Track 10 not present in database
Track 11 not present in database
Track 12 not present in database
Track 13 not present in database
Track 14 not present in database
Track 15 not present in database
Track 16 not present in database
Track 17 not present in database
Track 18 not present in database
Track 19 not present in database
Track 20 not present in database
Track 21 not present in database
Track 22 not present in database
Track 23 not present in database
Track 24 not present in database
Track 25 not present in database
Track 26 not present in database
Track 27 not present in database
Track 28 not present in database
Track 29 not present in database
Track 30 not present in database
Track 31 not present in database

None of the tracks are present in the AccurateRip database

End of status report
Audiochecker Log
AUDIOCHECKER v2.0 beta (build 457) - by Dester - [email protected]
~~~~~~~~~~~~~~~~~~~~~~~~~~~~~~~~~~
-=== НЕ РЕДАКТИРУЙТЕ ЭТОТ ФАЙЛ! ===-

Путь: ...\2006 - Українські народні пісні. Випуск 2

01 -=- 01 - Сусідка.wav -=- CDDA (100%)
02 -=- 02 - Зеленеє жито, зелене.wav -=- CDDA (100%)
03 -=- 03 - Дівка в сінях стояла.wav -=- CDDA (100%)
04 -=- 04 - Глибока криниця.wav -=- CDDA (100%)
05 -=- 05 - Од Києва до Лубен.wav -=- CDDA (99%)
06 -=- 06 - На вулиці скрипка грає.wav -=- CDDA (99%)
07 -=- 07 - Перелаз, перелаз.wav -=- CDDA (100%)
08 -=- 08 - Черевички мої.wav -=- CDDA (100%)
09 -=- 09 - Добрий вечір, дівчино.wav -=- CDDA (100%)
10 -=- 10 - Тиха вода.wav -=- CDDA (100%)
11 -=- 11 - Одна гора високая.wav -=- CDDA (100%)
12 -=- 12 - Іванку, Іванку.wav -=- CDDA (87%)
13 -=- 13 - Якби мені не тиночки.wav -=- CDDA (100%)
14 -=- 14 - Ой, у вишневому саду.wav -=- CDDA (100%)
15 -=- 15 - Тече річка невеличка.wav -=- CDDA (100%)
16 -=- 16 - Цвіте терен.wav -=- CDDA (100%)
17 -=- 17 - Стоїть гора високая.wav -=- CDDA (100%)
18 -=- 18 - Йшли корови із діброви.wav -=- CDDA (100%)
19 -=- 19 - Дівчино кохана.wav -=- CDDA (100%)
20 -=- 20 - Гиля, Гиля, сірі гуси.wav -=- CDDA (100%)
21 -=- 21 - Ішов козак яром.wav -=- CDDA (100%)
22 -=- 22 - Лугом іду, коня веду.wav -=- CDDA (100%)
23 -=- 23 - Горіла сосна.wav -=- CDDA (100%)
24 -=- 24 - Ой, важу я, важу.wav -=- CDDA (100%)
25 -=- 25 - І шумить, і гуде.wav -=- CDDA (100%)
26 -=- 26 - Побреду.wav -=- CDDA (100%)
27 -=- 27 - Ой, на горі калина.wav -=- MPEG (95%)
28 -=- 28 - У сусіда хата біла.wav -=- CDDA (100%)
29 -=- 29 - А я чорнява.wav -=- CDDA (100%)
30 -=- 30 - А мій милий чорнобривий.wav -=- CDDA (100%)
31 -=- 31 - Якби мені сивий кінь.wav -=- CDDA (100%)

Сводка 96,45% CDDA

28946644
2008 - Українські народні пісні. Випуск 3


01 - Ой, у вишневому садочку - 2:10
Державний заслужений український народний хор
02 - Ой, я молода - 1:47
Поліський ансамбль пісні і танцю 'Льонок'
03 - Ой, піду я на ярмарок - 2:10
фольклорний ансамбль с. Глядки Зборівського р-ну
04 - Ой, заграйте, музиченьки - 2:40
інструментальний ансамбль 'Росава'
05 - Ой, на горі калина - 2:21
Діана та Василь Матющенки, ансамбль 'Росава'
06 - Ой, на горі два дубки - 2:21
Раїса Кириченко, ансамбль 'Росава'
07 - Ой, у полі криниченька - 2:59
Поліський народний хор 'Льонок'
08 - Ой, чорна я си, чорна - 1:43
хор Новоазовського РБК
09 - Гей, Іване, Іване - 2:23
хор імені Г. Вєрьовки
10 - Ой, лопнув обруч - 1:52
Державна заслужена капела бандуристів України
11 - Ой, не ходи, Грицю - 4:23
Раїса Кириченко, ансамбль 'Чураївна'
12 - Ой, дуб дуба - 1:21
Народний хор Київського клубу БУ-4
13 - Ой, сад-виноград - 1:56
Олена Кулик, інструментальний ансамбль 'Троїсті музики'
14 - Ой, під вишнею - 2:00
Володимир Єсипок
15 - Ой, не рости, кропе - 2:26
вокальне тріо Державного заслуженого українського народного хору ім. Вєрьовки
16 - Ой, Іванку, Йванку - 1:47
Євгенія Крикун, орекстрова група Черкаського українського народного хору
17 - Ой, продала дівчинонька серце - 1:32
Степан Степан, ОНІ НРКУ
18 - Ой, коли б той вечір - 2:21
Наталія Цюпа, Поліна Павлюченко, Віра Мартиненко - вокальне тріо ДЗУНХ ім. Вєрьовки
19 - Ой, я маю чорні брови - 2:01
Галина Мурзай, інструментальний ансамбль п-к Віктора Фалалаєва
20 - Ой, важу я, важу - 2:49
Олександр Чулюк-Заграй, ОНІ НРКУ
21 - Ой, думала я, як спечу малая - 1:49
Світлана Лятушинська, інструментальний ансамбль 'Рідні наспіви'
22 - Ой, поїхав за снопами - 1:28
Микола Шопша, ОНІ НРКУ
23 - Ой, мати, мати, мати... - 1:21
Раїса Кириченко, ОНІ України
24 - Гей, як був я молодий - 1:37
Андрій Бобир
25 - Ой, піду я до млина - 1:11
Надія Мерцин, Закарпатський народний хор
26 - Ой, був та нема - 1:38
Ярослав Гнатюк, ОНІ НРКУ
27 - Гей, Іване, люби ня - 2:00
Валентина Марченко, ОНІ УР
28 - Ой, ти знав, нащо брав - 1:17
Алла Кудлай, ОНІ УР
29 - Ой, піду я понад лугом - 1:33
Євгенія Крикун, Черкаський український народний хор
30 - Ой, у саду вишня червоная - 1:50
Михайло Тихоненко, Анатолій Хоменко, Черкаський український народний хор
31 - Ой, посіяв козак гречку - 1:34
хор ОНІ УР
32 - Ой, там, на точку, на базарі - 2:40
О.Хоменко, молодіжна група ДЗУНХ ім. Вєрьовки
33 - Ой, у полі вітер віє - 2:38
Діана та Василь Матющенки
34 - Ой, гарна я, гарна - 2:56
Раїса Кириченко, інструментальна група Черкаського народного хору
35 - Ой, Марічко, чичері - 2:17
Державна капела бандуристів України
36 - Ой, не світи, місяченьку - 3:10
Волинський український народний хор

Тривалість: 01:16:01
EAC Log
Exact Audio Copy V0.99 prebeta 5 from 4. May 2009

EAC extraction logfile from 16. October 2009, 18:01

Various / Українські народні пісні. Випуск 3

Used drive : HL-DT-STDVDRAM GSA-H10N Adapter: 0 ID: 1

Read mode : Secure
Utilize accurate stream : Yes
Defeat audio cache : Yes
Make use of C2 pointers : No

Read offset correction : 667
Overread into Lead-In and Lead-Out : No
Fill up missing offset samples with silence : Yes
Delete leading and trailing silent blocks : No
Null samples used in CRC calculations : No
Used interface : Native Win32 interface for Win NT & 2000

Used output format : Monkey's Audio Lossless Encoder v3.99 DLL
Sample format : High Lossless Compression

TOC of the extracted CD

Track | Start | Length | Start sector | End sector
---------------------------------------------------------
1 | 0:00.00 | 2:10.29 | 0 | 9778
2 | 2:10.29 | 1:47.06 | 9779 | 17809
3 | 3:57.35 | 2:09.69 | 17810 | 27553
4 | 6:07.29 | 2:40.17 | 27554 | 39570
5 | 8:47.46 | 2:21.11 | 39571 | 50156
6 | 11:08.57 | 2:21.20 | 50157 | 60751
7 | 13:30.02 | 2:59.35 | 60752 | 74211
8 | 16:29.37 | 1:43.30 | 74212 | 81966
9 | 18:12.67 | 2:23.10 | 81967 | 92701
10 | 20:36.02 | 1:51.60 | 92702 | 101086
11 | 22:27.62 | 4:22.63 | 101087 | 120799
12 | 26:50.50 | 1:20.59 | 120800 | 126858
13 | 28:11.34 | 1:55.53 | 126859 | 135536
14 | 30:07.12 | 2:00.29 | 135537 | 144565
15 | 32:07.41 | 2:26.03 | 144566 | 155518
16 | 34:33.44 | 1:46.47 | 155519 | 163515
17 | 36:20.16 | 1:31.61 | 163516 | 170401
18 | 37:52.02 | 2:20.73 | 170402 | 180974
19 | 40:13.00 | 2:00.55 | 180975 | 190029
20 | 42:13.55 | 2:49.26 | 190030 | 202730
21 | 45:03.06 | 1:49.08 | 202731 | 210913
22 | 46:52.14 | 1:28.11 | 210914 | 217524
23 | 48:20.25 | 1:20.60 | 217525 | 223584
24 | 49:41.10 | 1:36.46 | 223585 | 230830
25 | 51:17.56 | 1:11.25 | 230831 | 236180
26 | 52:29.06 | 1:37.53 | 236181 | 243508
27 | 54:06.59 | 1:59.66 | 243509 | 252499
28 | 56:06.50 | 1:17.13 | 252500 | 258287
29 | 57:23.63 | 1:32.67 | 258288 | 265254
30 | 58:56.55 | 1:50.35 | 265255 | 273539
31 | 60:47.15 | 1:33.47 | 273540 | 280561
32 | 62:20.62 | 2:39.53 | 280562 | 292539
33 | 65:00.40 | 2:37.67 | 292540 | 304381
34 | 67:38.32 | 2:55.70 | 304382 | 317576
35 | 70:34.27 | 2:16.60 | 317577 | 327836
36 | 72:51.12 | 3:10.22 | 327837 | 342108

Range status and errors

Selected range

Filename E:\Music3\Ukrainian\Н\Народні пісні\2008 - Українські народні пісні. Випуск 3\2008 - Українські народні пісні. Випуск 3.ape

Peak level 98.0 %
Range quality 100.0 %
Test CRC E2D60827
Copy CRC E2D60827
Copy OK

No errors occurred

AccurateRip summary

Track 1 not present in database
Track 2 not present in database
Track 3 not present in database
Track 4 not present in database
Track 5 not present in database
Track 6 not present in database
Track 7 not present in database
Track 8 not present in database
Track 9 not present in database
Track 10 not present in database
Track 11 not present in database
Track 12 not present in database
Track 13 not present in database
Track 14 not present in database
Track 15 not present in database
Track 16 not present in database
Track 17 not present in database
Track 18 not present in database
Track 19 not present in database
Track 20 not present in database
Track 21 not present in database
Track 22 not present in database
Track 23 not present in database
Track 24 not present in database
Track 25 not present in database
Track 26 not present in database
Track 27 not present in database
Track 28 not present in database
Track 29 not present in database
Track 30 not present in database
Track 31 not present in database
Track 32 not present in database
Track 33 not present in database
Track 34 not present in database
Track 35 not present in database
Track 36 not present in database

None of the tracks are present in the AccurateRip database

End of status report
Audiochecker Log
AUDIOCHECKER v2.0 beta (build 457) - by Dester - [email protected]
~~~~~~~~~~~~~~~~~~~~~~~~~~~~~~~~~~
-=== НЕ РЕДАКТИРУЙТЕ ЭТОТ ФАЙЛ! ===-

Путь: ...\2008 - Українські народні пісні. Випуск 3

01 -=- 01 - Ой, у вишневому садочку.wav -=- CDDA (99%)
02 -=- 02 - Ой, я молода.wav -=- CDDA (100%)
03 -=- 03 - Ой, піду я на ярмарок.wav -=- CDDA (99%)
04 -=- 04 - Ой, заграйте, музиченьки.wav -=- CDDA (100%)
05 -=- 05 - Ой, на горі калина.wav -=- CDDA (100%)
06 -=- 06 - Ой, на горі два дубки.wav -=- CDDA (100%)
07 -=- 07 - Ой, у полі криниченька.wav -=- CDDA (100%)
08 -=- 08 - Ой, чорна я си, чорна.wav -=- CDDA (100%)
09 -=- 09 - Гей, Іване, Іване.wav -=- CDDA (100%)
10 -=- 10 - Ой, лопнув обруч.wav -=- CDDA (100%)
11 -=- 11 - Ой, не ходи, Грицю.wav -=- CDDA (100%)
12 -=- 12 - Ой, дуб дуба.wav -=- CDDA (100%)
13 -=- 13 - Ой, сад-виноград.wav -=- CDDA (100%)
14 -=- 14 - Ой, під вишнею.wav -=- CDDA (100%)
15 -=- 15 - Ой, не рости, кропе.wav -=- CDDA (99%)
16 -=- 16 - Ой, Іванку, Йванку.wav -=- CDDA (100%)
17 -=- 17 - Ой, продала дівчинонька серце.wav -=- CDDA (99%)
18 -=- 18 - Ой, коли б той вечір.wav -=- CDDA (100%)
19 -=- 19 - Ой, я маю чорні брови.wav -=- CDDA (100%)
20 -=- 20 - Ой, важу я, важу.wav -=- CDDA (100%)
21 -=- 21 - Ой, думала я, як спечу малая.wav -=- CDDA (100%)
22 -=- 22 - Ой, поїхав за снопами.wav -=- CDDA (100%)
23 -=- 23 - Ой, мати, мати, мати.wav -=- CDDA (100%)
24 -=- 24 - Гей, як був я молодий.wav -=- CDDA (100%)
25 -=- 25 - Ой, піду я до млина.wav -=- CDDA (100%)
26 -=- 26 - Ой, був та нема.wav -=- CDDA (99%)
27 -=- 27 - Гей, Іване, люби ня.wav -=- CDDA (100%)
28 -=- 28 - Ой, ти знав, нащо брав.wav -=- CDDA (100%)
29 -=- 29 - Ой, піду я понад лугом.wav -=- CDDA (100%)
30 -=- 30 - Ой, у саду вишня червоная.wav -=- CDDA (100%)
31 -=- 31 - Ой, посіяв козак гречку.wav -=- CDDA (100%)
32 -=- 32 - Ой, там, на точку, на базарі.wav -=- CDDA (100%)
33 -=- 33 - Ой, у полі вітер віє.wav -=- CDDA (99%)
34 -=- 34 - Ой, гарна я, гарна.wav -=- CDDA (100%)
35 -=- 35 - Ой, Марічко, чичері.wav -=- CDDA (100%)
36 -=- 36 - Ой, не світи, місяченьку.wav -=- CDDA (100%)

Сводка 99,83% CDDA

166405892
Тривалість: 03:53:43
Мова: українська
Аудіо-кодек: APE
Ріп: image+ Embedded EAC/audiochecker, CUE/cover зовнішні
EAC: Secure + Accurate stream + disable cache/C2
Бітрейт: lossless (~659-680 кбіт/с)
Джерело: власний ріп

Додаткова інформація: Компанія Астра та Національна Теле-Радіокомпанія України представляють записи з архівів Національної Радіокомпанії України. Повний перелік золотої колекції


Золотий реліз (завантажене не впливає на рейтинг)
 Трекер:    Зареєстрований   

Завантажити / скачати українську музику



відео для новачків



 Зареєстрований:   2009-10-16 19:29
 Розмір:   1.1 GB 
 Оцінка музики:   9.9/10 (Голосів: 128)
   
jinotot 
Почесний оцифрувальник літератури


З нами з: 28.01.09
Востаннє: 04.12.16
Повідомлень: 3235

2009-10-16 22:32  
plyrvt, ну, УМКА ж не є офіційним сайтом, правда? Прошу прибрати стрічку "сайти" взагалі. Там вказуємо або офіційний сайт, або майспейс. Якщо такого нема -- прибираємо. Не треба мудрити, що туди написати, якщо ні оф.сайту, ні майспейсу нема.

А за реліз -- велике-превелике спасибі!
Можна також тут кинути лінк на реліз в mp3 -- раптом хтось не в курсі, що є можливість вибору, а натрапить першим на цей реліз.
Ще раз дякую!

plyrvt 
VIP


З нами з: 03.12.08
Востаннє: 09.12.16
Повідомлень: 398

2009-10-16 22:46  
Цитата:
Можна також тут кинути лінк на реліз в mp3

Там лише перший випуск

jinotot 
Почесний оцифрувальник літератури


З нами з: 28.01.09
Востаннє: 04.12.16
Повідомлень: 3235

2009-10-16 23:23  
plyrvt написано:
Там лише перший випуск
ясно... недогледів, перепрошую... ну, нехай тоді так і лишається.
MAG 
Новенький


З нами з: 14.03.09
Востаннє: 09.12.16
Повідомлень: 4

2009-11-29 13:31  
Скажіть будь-ласка - як розбити *.ape на окремі mp3?

У мене чомусь на виході у таких програм як Monkey Audio лише всі пісні одним файлом виходить.

Tarasyk 
Відео Гуртом - фільмокрай
Відео Гуртом - фільмокрай


З нами з: 26.08.09
Востаннє: 10.12.16
Повідомлень: 5974

2009-11-29 14:38  
Не знаю як щодо Monkey Audio, але найзручніше, як на мене, це зробити в AIMP.
Відкриваєте аудіо-конвертер, перетягаєте туди файл *.cue. У Вас одразу з'являється список усіх композицій. Наскільки я розумію, головне, щоб файл *.ape і *.cue були в одній папці, бо вони взаємопов'язані. Вибираєте необхідні параметри конвертування та конвертуєте.
Вуаля - усі композиції в mp3.

Nomad 
VIP


З нами з: 17.03.08
Востаннє: 08.02.12
Повідомлень: 513

2009-12-16 22:12  
тут ще треба рахувати скачаний трафік в бонуси для популяризації, статус цієї роздачі має бути "платиновий"
krendel154 
Новенький


З нами з: 15.04.09
Востаннє: 02.12.16
Повідомлень: 2

2009-12-25 21:02  
199 людей це завантажили. Дуже цікаво, скільки з них здатні прослухати цю музику окрім як на комп"ютері?
Я трішки орієнтуюсь в компютері,спробував три різних аудіо конвертери(AIMP теж),але розбити це високоякісне ЧУДО на окремі mp3 не вдалось.Звичайно,що можна зробити з високої якості нижчу якість.Але кому потрібно годинами шукати і пробувати різні конвертери?Є бажання просто послухати гарну музику,а не створювати свою власну студію аудіо запису.Я більше ніж впевнений,що більшість з цих 199 людей згідні зі мною і більшість з них здатні слухати ці збірники тільки на компютері,бо не дали собі ради.Дуже приємно було мати таку збірку.Видаляю її.

plyrvt 
VIP


З нами з: 03.12.08
Востаннє: 09.12.16
Повідомлень: 398

2009-12-25 21:31  
"... а Баба Яга против..."

Проти чого?... За що?... Rolleyes (4)

Nomad 
VIP


З нами з: 17.03.08
Востаннє: 08.02.12
Повідомлень: 513

2009-12-26 10:57  
krendel154 написано:

199 людей це завантажили. Дуже цікаво, скільки з них здатні прослухати цю музику окрім як на комп"ютері?
Я трішки орієнтуюсь в компютері,спробував три різних аудіо конвертери(AIMP теж),але розбити це високоякісне ЧУДО на окремі mp3 не вдалось.Звичайно,що можна зробити з високої якості нижчу якість.Але кому потрібно годинами шукати і пробувати різні конвертери?Є бажання просто послухати гарну музику,а не створювати свою власну студію аудіо запису.Я більше ніж впевнений,що більшість з цих 199 людей згідні зі мною і більшість з них здатні слухати ці збірники тільки на компютері,бо не дали собі ради.Дуже приємно було мати таку збірку.Видаляю її.

можу тобі порадити як записати це все на аудіо диски, звертайся в приват, не спіши видаляти Happy

plyrvt 
VIP


З нами з: 03.12.08
Востаннє: 09.12.16
Повідомлень: 398

2009-12-26 12:14  
Цитата:
можу тобі порадити як записати це все на аудіо диски, звертайся в приват, не спіши видаляти

Про це є в інструкції. Але це ніяк не допоможе йому конвертувати в MP3.
Щоб конвертувати MP3 потрібно спершу ріпнути. А цей реліз - це і є вже готовий ріп.

Корисніше буде якщо ти допоможеш в написанні інструкції.

Nomad 
VIP


З нами з: 17.03.08
Востаннє: 08.02.12
Повідомлень: 513

2009-12-27 11:58  
немає натхнення писати інструкції, краще я людині напряму розповім
krendel154 
Новенький


З нами з: 15.04.09
Востаннє: 02.12.16
Повідомлень: 2

2009-12-28 08:49  
Цитата:
немає натхнення писати інструкції, краще я людині напряму розповім

Це що,конфіденційна інформація?Я не єдиний,що потребує цієї інструкції.Якщо знаєш як це зробити,то допоможи людям.

Nomad 
VIP


З нами з: 17.03.08
Востаннє: 08.02.12
Повідомлень: 513

2009-12-28 20:52  
krendel154 написано:
Це що,конфіденційна інформація?Я не єдиний,що потребує цієї інструкції.Якщо знаєш як це зробити,то допоможи людям.

Чисто для тебе по секрету - Інструкція Happy

FAKeWyLF 
Новенький


З нами з: 03.03.10
Востаннє: 20.06.15
Повідомлень: 1

2010-03-14 17:43  
ВЕЛИКЕ-ПРЕВЕЛИКЕ ДЯКУЮ!!! Ці пісні можу слухати цілодобово Happy
Wolt 
Новенький


З нами з: 23.03.10
Востаннє: 24.07.16
Повідомлень: 5

2010-04-06 00:08  
Вельми вдячний за якісні Українські Народні Пісні!!! Побільше б таких колекцій!
smakoszsoczewica 
Новенький


З нами з: 09.07.10
Востаннє: 21.01.15
Повідомлень: 4

2010-10-11 13:33  
Слова подяки...
Автор 
Частий відвідувач


З нами з: 28.10.10
Востаннє: 10.11.14
Повідомлень: 29

2010-11-08 05:39  
Дуже гарні пісні, й виконання дуже добре. У мене навіть деяких пісень і не було.
Вельми вдячний за колекцію.

makedonbrik 
Новенький


З нами з: 31.01.11
Востаннє: 05.12.16
Повідомлень: 3

2011-02-03 20:51  
КЛАСНІ ПІСЕНЬКИ
Катрич 
Новенький


З нами з: 07.02.11
Востаннє: 08.02.11
Повідомлень: 1

2011-02-07 23:43  
Вельме дякую за музику
ssTAss 
Модератор музики


З нами з: 05.07.08
Востаннє: 10.12.16
Повідомлень: 10952

2011-02-08 17:37  
обкладинка

smkysil 
Частий відвідувач


З нами з: 30.01.09
Востаннє: 20.11.16
Повідомлень: 29

2011-07-16 13:44  
Міні здається, що 3-ій диск у Lossy-формати. Принаймні, у мене після розпакування APE 2 WAV (розпаковую завжди Monkey's Audio) образ диску не хоче монтуватися у Daemon Tools'і.
ssTAss 
Модератор музики


З нами з: 05.07.08
Востаннє: 10.12.16
Повідомлень: 10952

2011-07-16 17:56  
smkysil написано:
після розпакування APE 2 WAV (розпаковую завжди Monkey's Audio) образ диску не хоче монтуватися у Daemon Tools'і.

одне до другого ніякого відношення не має
з диском все добре, дивіться звіт аудіочекера

gosha.samovar 
VIP


З нами з: 08.09.10
Востаннє: 10.12.16
Повідомлень: 400

2011-09-26 11:43  
Тут люди питали, як зробити мр3. Особисто я робив мр3 з flac таким чином (гадаю, процедура з APE нічим особливо не відрізняється). Спочатку програмою Medieval CUE Splitter різав на треки, потім за допомогою Total Audio Converter конвертував у мр3.
ssTAss 
Модератор музики


З нами з: 05.07.08
Востаннє: 10.12.16
Повідомлень: 10952

2011-09-26 18:54  
навіщо так складно?
будь-які перетворення робить фубар (краще завантажити готову збірку)

gosha.samovar 
VIP


З нами з: 08.09.10
Востаннє: 10.12.16
Повідомлень: 400

2011-09-26 21:02  
От не знаю, у кого як, а в мене деякий софт викликає якусь нелюбов з самого моменту інсталяції. Фубар - у тому числі.
markesha 
Новенький


З нами з: 04.04.13
Востаннє: 01.08.16
Повідомлень: 10

2013-04-16 15:15  
Дуже дякую за цю чудову роздачу. Чомусь не одразу її побачив. А це саме те, що мені потрібно!
fatalik 
Новенький


З нами з: 12.01.08
Востаннє: 05.12.16
Повідомлень: 9

2013-08-14 13:44  
ДЯКУЮ! Чудові підбірки та якість!
Слава Україні!

Кобзар3 
Частий відвідувач


З нами з: 26.12.10
Востаннє: 19.04.15
Повідомлень: 32

2013-08-17 17:17  
makedonbrik КЛАСНІ ПІСЕНЬКИ
Для мене "класні" пісеньки - це расєйський шансон.
Українська пісня (не маю на увазі "я не здамся без бою...", ...) - це радість, натхнення, щастя, любов, журба, біль, ... нашого народу.
Для мене "класні, (кльові, прикольні, ...)" українські пісні - це як "класна ..." молитва, "кльова ..." ікона, "прикольний ..." хрест, ...
Очистимо нашу солов'їну від цього бруду.
Дякую.

plyrvt 
VIP


З нами з: 03.12.08
Востаннє: 09.12.16
Повідомлень: 398

2013-08-17 18:17  
Дві третини пісень - жартівливі. Третина - зітхання про любов.
Порівняння їх з "іконою/хрестом/молитвою" як на мене недоречне, а епітет "класні пісеньки" нормальний.
До чого тут взагалі блатнякові пісні.

Ваш часовий пояс: GMT + 2 Години

Нова тема   Відповісти Сторінка:  1, 2  наступна