Морган / Morgan (2016) Ukr/Eng | Sub Ukr/Eng

Нові коментарі

Нова тема   Відповісти
Автор Повідомлення
Anonymous 







2017-01-13 21:39  
Морган / Morgan (2016) Ukr/Eng | Sub Ukr/Eng

Морган / Morgan (2016) Ukr/Eng | Sub Ukr/Eng


Жанр: жахи,фантастика, трилер, детектив
Країна: США
Кінокомпанія: Scott Free Productions



Режисер: Люк Скотт / Luke Scott
Продюсер: Рідлі Скотт / Ridley Scott
Актори: Кейт Мара / Kate Mara, Аня Тейлор-Джой / Anya Taylor-Joy, Роуз Леслі / Rose Leslie, Майкл Йар / Michael Yare, Тобі Джонс / Toby Jones, Кріс Салліван / Chris Sullivan, Бойд Холбрук / Boyd Holbrook, Вінетт Робінсон / Vinette Robinson, Мішель Йєо / Michelle Yeoh, Брайан Кокс / Brian Cox, Пол Джаматті / Paul Giamatti та інші

Сюжет:
Співробітниця по усуненню аварій відправляється у віддалений секретний філіал, де має розслідувати і оцінити втрати від жахливої катастрофи. На місці вона дізнається, що те, що трапилося було викликано, здавалося б, невинною «людиною», чиє існування саме по собі є небезпечною таємницею

Офіційний український трейлер:


Рейтинг MPAA: R - особам до 17 років обов'язкова присутність батьків або дорослого опікуна
Вікова категорія: 16+

Тривалість: 01:31:52
Якість:
Відео:
кодек:
розмір кадру: 720 х 304
бітрейт: 1820 Кбіт/с

Аудіо # 1
мова: українська
переклад: професійний дубльований
кодек: 5.1
бітрейт: 448 Кбіт/с

Аудіо # 2
мова: англійська
переклад: оригінал
кодек: 5.1
бітрейт: 448 Кбіт/с

Субтитри # 1-2:
мова: українська (форсовані, повні)
тип: програмні (м'які)
формат: srt

Субтитри # 3-4:
мова: англійська (форсовані, повні)
тип: програмні (м'які)
формат: srt
MediaInfo
Код:
Format                      : AVI
Format/Info                 : Audio Video Interleave
File size                   : 1.75 GiB
Duration                    : 1 h 31 min
Overall bit rate            : 2 730 kb/s

Video
ID                          : 0
Format                      : MPEG-4 Visual
Format profile              : Advanced [email protected]
Format settings, BVOP       : 1
Format settings, QPel       : No
Format settings, GMC        : No warppoints
Format settings, Matrix     : Custom
Codec ID                    :
Codec ID/Hint               :
Duration                    : 1 h 31 min
Bit rate                    : 1 820 kb/s
Width                       : 720 pixels
Height                      : 304 pixels
Display aspect ratio        : 2.35:1
Frame rate                  : 23.976 (24000/1001) FPS
Color space                 : YUV
Chroma subsampling          : 4:2:0
Bit depth                   : 8 bits
Scan type                   : Progressive
Compression mode            : Lossy
Bits/(Pixel*Frame)          : 0.347
Stream size                 : 1.17 GiB (67%)
Writing library             : 73

Audio #1
ID                          : 1
Format                      : AC-3
Format/Info                 : Audio Coding 3
Mode extension              : CM (complete main)
Format settings, Endianness : Big
Codec ID                    : 2000
Duration                    : 1 h 31 min
Bit rate mode               : Constant
Bit rate                    : 448 kb/s
Channel(s)                  : 6 channels
Channel positions           : Front: L C R, Side: L R, LFE
Sampling rate               : 48.0 kHz
Frame rate                  : 31.250 FPS (1536 spf)
Bit depth                   : 16 bits
Compression mode            : Lossy
Stream size                 : 294 MiB (16%)
Alignment                   : Split accross interleaves
Interleave, duration        : 42  ms (1.00 video frame)
Interleave, preload duratio : 500  ms
Title                       : UKR DUB [Blu-ray EUR]

Audio #2
ID                          : 2
Format                      : AC-3
Format/Info                 : Audio Coding 3
Mode extension              : CM (complete main)
Format settings, Endianness : Big
Codec ID                    : 2000
Duration                    : 1 h 31 min
Bit rate mode               : Constant
Bit rate                    : 448 kb/s
Channel(s)                  : 6 channels
Channel positions           : Front: L C R, Side: L R, LFE
Sampling rate               : 48.0 kHz
Frame rate                  : 31.250 FPS (1536 spf)
Bit depth                   : 16 bits
Compression mode            : Lossy
Stream size                 : 294 MiB (16%)
Alignment                   : Split accross interleaves
Interleave, duration        : 42  ms (1.00 video frame)
Interleave, preload duratio : 500  ms
Title                       : Eng


Джерело: &


 Трекер:    Зареєстрований   

Завантажити фільм українською



відео для новачків



 Зареєстрований:   2017-01-13 22:41
 Розмір:   1.75 GB 
 Оцінка фільму:   6.1/10 (Голосів: 29)
   
Інші релізи
   Морган / Morgan (2016) 1080p Ukr/Eng | Sub Ukr/Eng sergiyko.5  16 / 1   10.58 GB   2017-01-14 10:24 
   Морган / Morgan (2016) Remux 1080p Ukr/Eng | Sub Ukr/Eng igor911  11 / 0   21.86 GB   2017-01-13 19:27 
   Морган / Morgan (2016) AVC Ukr/Eng | Sub Ukr/Eng igor911  38 / 2   1.7 GB   2017-01-13 18:30 
   Морган / Morgan (2016) 720p Ukr/Eng | Sub Ukr/Eng 11FrYkT  31 / 4   4.23 GB   2017-01-13 18:14 
kino.girl 
Частий відвідувач


З нами з: 06.11.15
Востаннє: 15.01.17
Повідомлень: 32

2017-01-15 14:20  
якась муть...
an.j. 
Новенький


З нами з: 20.10.12
Востаннє: 22.01.17
Повідомлень: 18

2017-01-15 22:51  
хто дивився?,шо скажете?
Anonymous 







2017-01-15 22:55  
an.j., глянь відгуки у сусідніх релізах у спойлері "Інші релізи" під блоком завантаження.
Ось найбільш розгорнутий відгук http://toloka.to/t77956#853362

Shahin 
Новенький


З нами з: 16.12.16
Востаннє: 21.01.17
Повідомлень: 5

2017-01-17 20:56  
Мені дуже сподобався фільм. Добрий триллер з несподіваним, але вже наприкінці фільма очикуваним результатом.
boroznaya 
VIP


З нами з: 02.11.12
Востаннє: 22.01.17
Повідомлень: 1983

2017-01-22 10:18  
І знову американці переслідують свою основну мету - створення надлюдини з безмежними можливостями. У них це напевне закладено на роду, адже вони так і горять бажанням закритись у секретній лобораторії, вивчати генну інженерію, створювати щось надприродне і експериментувати над ним. Що ж могла відчувати бідна Морган, опинившись у лабораторії, де кожен щось від неї вимагав. Моя думка така, не потрібно бавитися в богів, адже ніякого морального права у нас немає, навіть, якщо все проходить гладко. Тому, все клалось так, як і повинно. Всі отримали по заслузі. Навіть ті, хто на це не заслуговував. До середини фільму можна було переспатись разів зо два, але від середини до кінця фільм набирає надзвичайних обертів, і його вже можна переглядати, затамувавши подих. Порадувала бойовим мистецтвом красуня Кейт Мара, у неї це вийшло просто шикарно. Особисто я маю бажання ще не один раз переглянути цей фільм у майбутньому, а Ви?
Anonymous 







2017-01-22 10:19  
boroznaya написано:
було переспатись разів зо два

залежить від партнера Happy

Ваш часовий пояс: GMT + 2 Години

Нова тема   Відповісти