Астерікс і вікінги / Asterix et les Vikings (2006) Remux 1080p 2xUkr/Fra | Sub Eng

Нові коментарі

Нова тема   Відповісти
Останній раз роздавалося staf777 (2017-01-22)
Автор Повідомлення
staf777 
Відео Гуртом - підтримка та поширення
Відео Гуртом - підтримка та поширення


З нами з: 16.11.16
Востаннє: 22.01.17
Повідомлень: 374

2017-01-10 17:38  
Астерікс і вікінги / Asterix et les Vikings (2006) Remux 1080p 2xUkr/Fra | Sub Eng

Астерікс і вікінги / Asterix et les Vikings (2006) Remux 1080p 2xUkr/Fra | Sub Eng
Оригінальний постер

Астерікс і вікінги / Asterix et les Vikings (2006) Remux 1080p 2xUkr/Fra | Sub Eng
Жанр: анімація, пригодницький, комедія
Країна: Франція



Кінокомпанія: M6 Films, Mandarin SAS, 2d3D Animations
Режисер: Стефан Фельдмарк, Джеспер Мюллер
Актори: Роже Карель, Лоран Дойч, Сара Форест, Жак Франц, П'єр Пальмад, П'єр Чернія, Бернар Алан, Марк Альфос, Жуль Азем, Патрік Борґ

Сюжет:
Астерікс і Обелікс вперше у своєму житті повинні зустрітися з вікінгами. Безстрашні воїни з північної країни викрали племінника вождя галлів, юного Задиру. Місія надзвичайно небезпечна, тому що вікінґи славляться як відчайдушні і безжальні воїни...


Тривалість: 01:18:13
Якість: Remux 1080p
Відео:
кодек:
розмір кадру: 1920x1080
бітрейт: 25000 кб/с

Аудіо # 1:
мова: українська
переклад: багатоголосий закадровий
кодек: 2.0
бітрейт: 192 кб/с
Інформація про озвучення

Ролі озвучили: Дмитро Завадський, Олег Лепенець, Павло Скороходько, Юлія Перенчук.
Аудіо # 2:
мова: українська
переклад: багатоголосий закадровий
кодек: 2.0
бітрейт: 192 кб/с
Інформація про озвучення

Ролі озвучили: Олег Стальчук, Анатолій Пашнін, Володимир Терещук і Олена Бліннікова.
Мультфільм озвучено студією Так Треба Продакшн на замовлення Інтер.
Аудіо # 3:
мова: французька
переклад: оригінал
кодек: 5.1
бітрейт: 1509 кб/с

Субтитри:
мова: англійська
тип: пререндерні
формат: PGS
MediaInfo
General
Unique ID : 215308052306192707149518644521817708899 (0xA1FAD290B2BBCE72B62F458B28B99963)
Complete name : E:\HDCLUB\ASTERIX_ET_LES_VIKINGS_HDCLUB\BDMV\STREAM\Asterix et les Vikings (2006) [2хUkr,Fra sub.Eng] Remux 1080p [Hurtom].mkv
Format : Matroska
Format version : Version 4 / Version 2
File size : 14.7 GiB
Duration : 1h 18mn
Overall bit rate mode : Variable
Overall bit rate : 26.9 Mbps
Movie name : Asterix et les Vikings (2006) [2хUkr,Fra sub.Eng] Remux 1080p [Hurtom]
Encoded date : UTC 2017-01-10 19:37:08
Writing application : mkvmerge v9.5.0 ('Quiet Fire') 64bit
Writing library : libebml v1.3.4 + libmatroska v1.4.5
Attachements : cover.jpg..jpg

Video
ID : 1
Format : AVC
Format/Info : Advanced Video Codec
Format profile : [email protected]
Format settings, CABAC : Yes
Format settings, ReFrames : 4 frames
Codec ID : V_MPEG4/ISO/AVC
Duration : 1h 18mn
Bit rate mode : Variable
Bit rate : 25.0 Mbps
Maximum bit rate : 35.0 Mbps
Width : 1 920 pixels
Height : 1 080 pixels
Display aspect ratio : 16:9
Frame rate mode : Constant
Frame rate : 24.000 fps
Standard : NTSC
Color space : YUV
Chroma subsampling : 4:2:0
Bit depth : 8 bits
Scan type : Progressive
Bits/(Pixel*Frame) : 0.502
Stream size : 13.6 GiB (93%)
Title : Asterix et les Vikings (2006) Remux 1080p
Default : Yes
Forced : No
Color range : Limited
Color primaries : BT.709
Transfer characteristics : BT.709
Matrix coefficients : BT.709

Audio #1
ID : 2
Format : AC-3
Format/Info : Audio Coding 3
Mode extension : CM (complete main)
Format settings, Endianness : Big
Codec ID : A_AC3
Duration : 1h 18mn
Bit rate mode : Constant
Bit rate : 192 Kbps
Channel(s) : 2 channels
Channel positions : Front: L R
Sampling rate : 48.0 KHz
Frame rate : 31.250 fps (1536 spf)
Compression mode : Lossy
Stream size : 107 MiB (1%)
Title : [UA-MVO]
Language : Ukrainian
Default : Yes
Forced : Yes

Audio #2
ID : 3
Format : AC-3
Format/Info : Audio Coding 3
Mode extension : CM (complete main)
Format settings, Endianness : Big
Codec ID : A_AC3
Duration : 1h 18mn
Bit rate mode : Constant
Bit rate : 192 Kbps
Channel(s) : 2 channels
Channel positions : Front: L R
Sampling rate : 48.0 KHz
Frame rate : 31.250 fps (1536 spf)
Compression mode : Lossy
Stream size : 107 MiB (1%)
Title : [UA-MVO]
Language : Ukrainian
Default : No
Forced : No

Audio #3
ID : 4
Format :
Format/Info : Digital Theater Systems
Mode : 16
Format settings, Endianness : Big
Codec ID : A_DTS
Duration : 1h 18mn
Bit rate mode : Constant
Bit rate : 1 509 Kbps
Channel(s) : 6 channels
Channel positions : Front: L C R, Side: L R, LFE
Sampling rate : 48.0 KHz
Frame rate : 93.750 fps (512 spf)
Bit depth : 24 bits
Compression mode : Lossy
Stream size : 844 MiB (6%)
Title : [Original]
Language : French
Default : No
Forced : No

Text
ID : 5
Format : PGS
Muxing mode : zlib
Codec ID : S_HDMV/PGS
Codec ID/Info : Picture based subtitle format used on BDs/HD-DVDs
Duration : 1h 10mn
Bit rate : 5 575 bps
Count of elements : 1438
Stream size : 2.81 MiB (0%)
Language : English
Default : Yes
Forced : No
Скріншоти






Подяка пану POMEO за запис Аудіо №1 і пану xslim за запис Аудіо №2.
Джерело: &
Особиста оцінка: 0 - не дивився


Золотий реліз (завантажене не впливає на рейтинг)
 Трекер:    Зареєстрований   

Завантажити мультфільм українською



відео для новачків



 Зареєстрований:   2017-01-11 14:34
 Розмір:   14.69 GB 
 Оцінка мультфільму:   9/10 (Голосів: 3)
   
Інші релізи
Ваш часовий пояс: GMT + 2 Години

Нова тема   Відповісти