Завантажити та скачати торренти українською


Дияволиця / Devilman Lady (1998) (серії 26 з 26) 480р Jpn | sub Ukr

Нові коментарі

Нова тема   Відповісти
Останній раз роздавалося Moroz Andrii (2017-01-19)
Автор Повідомлення
ihabi 
Поважний учасник


З нами з: 01.03.13
Востаннє: 17.01.17
Повідомлень: 213

2017-01-09 15:47  
Дияволиця / Devilman Lady (1998) (серії 26 з 26) 480р Jpn | sub Ukr

Дияволиця / Devilman Lady (1998) (серії 26 з 26) 480р Jpn | sub Ukr


Жанр: пригоди, драма, жахи, містика
Країна: Японія



Кінокомпанія: TMS
Режисер: Хірано Тошікі
Актори: Такор Фуджі, Ловел Бартоломей, Ерік Еббот, Бріт Бейкер, Мег Бауман

Сюжет:
Фудо Джюн - приваблива фотомодель з багатообіцяючим майбутнім. Але в ній схована нестримна демонічна сила. Одного вечора Джюн зустрічає Аску Лан, яка керує спецпідрозділом, що відловлює та винищує Звірів - людей, що перетворилися на дияволів. Джюн повинна знайти сили, щоб протистояти як Звірам, так і людям, які не набагато кращі за них.


Тривалість: 00:24:05
Якість:
Відео:
кодек: VC-1
розмір кадру: 640 х 480
бітрейт: 1 087 кб/с

Аудіо:
мова: японська
переклад: оригінал
кодек: WMA 2.0
бітрейт: 297 кб/с

Субтитри:
мова: українська
тип: пререндерні
формат: *.ass

Переклад виконано:
Переклад: Kallaider
Редакція: May
Постер: Пан Олександр

Джерело: MelodicVoiceStudio
MediaInfo
Video
ID : 1
Format : VC-1
Codec ID : V_MS/VFW/FOURCC / WMV3
Codec ID/Info : Windows Media Video 9
Codec ID/Hint : WMV3
Duration : 24 min 6 s
Bit rate : 1 087 kb/s
Width : 640 pixels
Height : 480 pixels
Display aspect ratio : 4:3
Frame rate mode : Constant
Frame rate : 23.976 (24000/1001) FPS
Bit depth : 8 bits
Compression mode : Lossy
Bits/(Pixel*Frame) : 0.148
Stream size : 187 MiB (78%)
Language : Japanese
Default : Yes
Forced : No

Audio
ID : 2
Format : WMA
Format version : Version 2
Codec ID : A_MS/ACM / 161
Codec ID/Info : Windows Media Audio
Duration : 24 min 5 s
Bit rate : 297 kb/s
Channel(s) : 2 channels
Sampling rate : 48.0 kHz
Frame rate : 4.539 FPS (10575 spf)
Bit depth : 16 bits
Stream size : 51.3 MiB (21%)
Title : Jpn
Language : Japanese
Default : Yes
Forced : No

Text
ID : 3
Format : ASS
Codec ID : S_TEXT/ASS
Codec ID/Info : Advanced Sub Station Alpha
Duration : 24 min 6 s
Bit rate : 128 b/s
Count of elements : 189
Compression mode : Lossless
Stream size : 22.7 KiB (0%)
Title : Kallaider
Language : Ukrainian
Default : Yes
Forced : Yes
Скріншоти




Особиста оцінка: 7 - моїй подрузі сподобалося


Авторський реліз (завантажувати можна без реєстрації)
 Трекер:    Зареєстрований   

Завантажити / скачати аніме українською



відео для новачків



 Зареєстрований:   2017-01-09 15:47
 Розмір:   6.63 GB 
 Оцінка аніме:   9.5/10 (Голосів: 2)
   
11FrYkT 
Модератор відео


З нами з: 20.02.11
Востаннє: 18.01.17
Повідомлень: 3300

2017-01-09 20:29  
ihabi , вкажіть десь джерело сабів
Ваш часовий пояс: GMT + 2 Години

Нова тема   Відповісти