Політ навігатора / Flight of the Navigator (1986) Remux 1080p 2xUkr/Eng | Sub Ukr/Eng

Нові коментарі

Нова тема   Відповісти
Автор Повідомлення
Anonymous 







2017-01-06 01:37  
Політ навігатора / Flight of the Navigator (1986) Remux 1080p 2xUkr/Eng | Sub Ukr/Eng



Жанр: фантастика, пригодницький, сімейний
Країна: США, Норвегія



Кінокомпанія: Walt Disney Pictures, Producers Sales Organization (PSO), New Star Entertainment, Viking Films
Режисер: Рендал Клайзер / Randal Kleiser
Актори: Джої Крамер / Joey Cramer, Пол Рубенс / Paul Reubens, Вероніка Картрайт / Veronica Cartwright, Кліфф Де Янг / Cliff De Young, Сара Джесіка Паркер / Sarah Jessica Parker, Метт Адлер / Matt Adler, Говард Гессеман / Howard Hesseman, Роберт Смолл / Robert Small, Елбі Вайтекер / Albie Whitaker, Джонатан Сенгер / Jonathan Sanger та інші

Сюжет:
Дванадцятирічний Девід зникає безвісти і таємничим чином повертається через вісім років, анітрохи не подорослішавши. Одночасно з його появою на околицях міста знаходять НЛО, яке потерпіло падіння, через зіткнення з високовольтною лінією. Все це не випадково. Всі ці вісім років Девід провів в космічній подорожі, зі швидкістю світла, яка тривала приблизно 5 годин, але 8 земних років.
Для того, щоб повернутися у свій час, маленькому хлопчику доведеться пройти через ряд труднощів та експериментів, які ставитимуть над ним вчені з NАSА.


Рейтинг MPAA: PG - рекомендується присутність батьків
Вікова категорія: 6+

Тривалість: 01:29:33
Якість: Remux
Відео:
кодек:
розмір кадру: 1920 х 1080
бітрейт: 20 Мбіт/с

Аудіо # 1:
мова: українська
переклад: професійний дубльований | Кіностудія Довженка
кодек: 2.0
бітрейт: 192 Кбіт/с
примітка: доріжку було очищено від шумів, помітно покращено її якість

Аудіо # 2:
мова: українська
переклад: багатоголосий закадровий | Так Треба Продакшн
кодек: 2.0
бітрейт: 192 Кбіт/с
примітка: озвучення те ж саме, що й в доріжці з Enter-фільму, але краща якість запису

Аудіо # 3:
мова: англійська
переклад: оригінал
кодек: -HD MA 5.1
бітрейт: 2112 Кбіт/с

Аудіо # 4:
мова: англійська
переклад: оригінал
кодек: 5.1
бітрейт: 640 Кбіт/с

Субтитри # 1:
мова: українська
тип: програмні (м'які)
формат: *.srt

Субтитри # 2:
мова: англійська
тип: програмні (м'які)
формат: *.srt
MediaInfo
Код:
Format                      : Matroska
Format version              : Version 4 / Version 2
File size                   : 14.5 GiB
Duration                    : 1 h 29 min
Overall bit rate mode       : Variable
Overall bit rate            : 23.1 Mb/s

Video
ID                          : 1
Format                      : AVC
Format/Info                 : Advanced Video Codec
Format profile              : [email protected]
Format settings, CABAC      : Yes
Format settings, ReFrames   : 4 frames
Codec ID                    : V_MPEG4/ISO/AVC
Duration                    : 1 h 29 min
Bit rate mode               : Variable
Bit rate                    : 20.0 Mb/s
Maximum bit rate            : 40.0 Mb/s
Width                       : 1 920 pixels
Height                      : 1 080 pixels
Display aspect ratio        : 16:9
Frame rate mode             : Constant
Frame rate                  : 23.976 (24000/1001) FPS
Color space                 : YUV
Chroma subsampling          : 4:2:0
Bit depth                   : 8 bits
Scan type                   : Progressive
Bits/(Pixel*Frame)          : 0.402
Stream size                 : 12.5 GiB (86%)
Title                       : Політ навігатора / Flight of the Navigator (1986) Remux 1080p [rutracker-Talian70]
Language                    : English
Default                     : Yes
Forced                      : No

Audio #1
ID                          : 2
Format                      : AC-3
Format/Info                 : Audio Coding 3
Mode extension              : CM (complete main)
Format settings, Endianness : Big
Codec ID                    : A_AC3
Duration                    : 1 h 29 min
Bit rate mode               : Constant
Bit rate                    : 192 kb/s
Channel(s)                  : 2 channels
Channel positions           : Front: L R
Sampling rate               : 48.0 kHz
Frame rate                  : 31.250 FPS (1536 spf)
Bit depth                   : 16 bits
Compression mode            : Lossy
Stream size                 : 123 MiB (1%)
Title                       : Dub [Dovzhenko Film Studios] 2.0 192 Kbps [Hurtom-Hanway]
Language                    : Ukrainian
Default                     : Yes
Forced                      : Yes

Audio #2
ID                          : 3
Format                      : AC-3
Format/Info                 : Audio Coding 3
Mode extension              : CM (complete main)
Format settings, Endianness : Big
Codec ID                    : A_AC3
Duration                    : 1 h 29 min
Bit rate mode               : Constant
Bit rate                    : 192 kb/s
Channel(s)                  : 2 channels
Channel positions           : Front: L R
Sampling rate               : 48.0 kHz
Frame rate                  : 31.250 FPS (1536 spf)
Bit depth                   : 16 bits
Compression mode            : Lossy
Stream size                 : 123 MiB (1%)
Title                       : MVO [TTP, 1+1] 2.0 [Hurtom-Hanway,xslim]
Language                    : Ukrainian
Default                     : No
Forced                      : No

Audio #3
ID                          : 4
Format                      :
Format/Info                 : Digital Theater Systems
Format profile              : MA / Core
Mode                        : 16
Format settings, Endianness : Big
Codec ID                    : A_DTS
Duration                    : 1 h 29 min
Bit rate mode               : Variable / Constant
Bit rate                    : 2 112 kb/s / 1 509 kb/s
Channel(s)                  : 6 channels
Channel positions           : Front: L C R, Side: L R, LFE
Sampling rate               : 48.0 kHz
Frame rate                  : 93.750 FPS (512 spf)
Bit depth                   : 16 bits
Compression mode            : Lossless / Lossy
Stream size                 : 1.32 GiB (9%)
Title                       : Original, -HD MA 5.1 2112 Kbps
Language                    : English
Default                     : No
Forced                      : No

Audio #4
ID                          : 5
Format                      : AC-3
Format/Info                 : Audio Coding 3
Mode extension              : CM (complete main)
Format settings, Endianness : Big
Codec ID                    : A_AC3
Duration                    : 1 h 29 min
Bit rate mode               : Constant
Bit rate                    : 640 kb/s
Channel(s)                  : 6 channels
Channel positions           : Front: L C R, Side: L R, LFE
Sampling rate               : 48.0 kHz
Frame rate                  : 31.250 FPS (1536 spf)
Bit depth                   : 16 bits
Compression mode            : Lossy
Stream size                 : 410 MiB (3%)
Title                       : Original, 5.1 640 Kbps
Language                    : English
Default                     : No
Forced                      : No

Text #1
ID                          : 6
Format                      : UTF-8
Codec ID                    : S_TEXT/UTF8
Codec ID/Info               : UTF-8 Plain Text
Duration                    : 1 h 23 min
Bit rate                    : 103 b/s
Count of elements           : 998
Stream size                 : 63.3 KiB (0%)
Title                       : Ukr Full [Hurtom-Кіномеханік]
Language                    : Ukrainian
Default                     : No
Forced                      : No

Text #2
ID                          : 7
Format                      : UTF-8
Codec ID                    : S_TEXT/UTF8
Codec ID/Info               : UTF-8 Plain Text
Duration                    : 1 h 23 min
Bit rate                    : 62 b/s
Count of elements           : 992
Stream size                 : 38.3 KiB (0%)
Title                       : Eng Full
Language                    : English
Default                     : No
Forced                      : No

Menu
00:00:00.000                : en:00:00:00.000
00:11:05.706                : en:00:11:05.706
00:21:46.138                : en:00:21:46.138
00:33:04.857                : en:00:33:04.857
00:39:57.186                : en:00:39:57.186
00:48:51.386                : en:00:48:51.386
01:00:58.363                : en:01:00:58.363
01:09:28.163                : en:01:09:28.163
01:19:17.752                : en:01:19:17.752
01:26:01.155                : en:01:26:01.155
01:29:32.950                : en:01:29:32.950


Джерело: &
Подяки: - за матеріальну допомогу по викупу дубляжу: _oles, Dim-ON, NemoInFire, salud111, Rost3, 192000, MutuLI, victor_v, sando7, yuriy03346, Sergo_k_s_v, гілка;
- за оцифровку звуку з кіноплівки: persi-kot (рутрекер);
- за запис звуку з 1+1: xslim;
- за зведення українських доріжок: Hanway;
- за українські субтитри: Кіномеханік;
- за українізований постер: Microfibra.

Особиста оцінка: 10 - рекомендую всім дітям та їх батькам!
ЗАЛИШАЙТЕСЬ ЯКОМОГА ДОВШЕ НА РОЗДАЧІ
ЗАВАНТАЖИВ САМ - ДАЙ ЗАВАНТАЖИТИ ІНШИМ!


Золотий реліз (завантажене не впливає на рейтинг)
 Трекер:    Зареєстрований   

Завантажити фільм українською



відео для новачків



 Зареєстрований:   2017-01-19 11:29
 Розмір:   14.47 GB 
 Оцінка фільму:   4/10 (Голосів: 15)
   
DDBj 
VIP


З нами з: 09.01.12
Востаннє: 21.01.17
Повідомлень: 529

2017-01-09 13:42  
Anonymous написано:
Дубляж буде перероблено, очищено від шумів.

Чудово, дякую! Національний центр Олександра Довженка має у власності ще один раритетний дубляж кінця вісімдесятих - "Роман з каменем" (1984). Але видати його вони не мають ні технічних засобів, ні прав. Є вихідні матеріали, з яких робили тираж, але нема жодної позитивної копії. Шкода, бо це по суті перші україномовні локалізації голлівудського кіно для прокату.

Ваш часовий пояс: GMT + 2 Години

Нова тема   Відповісти