Моя країна – Україна (26 серій) (2009-2014) HDTV 1080i

Нові коментарі

Нова тема   Відповісти
Автор Повідомлення
Anonymous 







2016-12-27 14:43  
Моя країна – Україна (26 серій) (2009-2014) HDTV 1080i



Жанр: анімація, сімейний, навчальний
Країна: Україна

Кінокомпанія: Новаторфільм
Керівник проекту: Степан Коваль
Офіційний сайт проекту: http://krainaukraina.com
Режисери: О.Карпус, Степан Коваль, С.Могильний, О.Несененко, Н.Скрябіна, Л.Міщенко, О.Макарчук, О.Мушенко, М.Мурашко, Оксана Прищепа, Сергій Руденко, Андрій Слєсаревський, К.Чепік, Є.Альохін, О.Цуріков
Ролі озвучують: Сашко Лірник, Ганна Левченко, Катерина Буцька, Борис Георгієвський, Дмитро Завадський та інші

Сюжет:
Пізнавальний анімаційний серіал для дітей та дорослих, історії різних міст та місць України, їх відомі або забуті казки, легенди...

Офіційний трейлер:

Тривалість: 1 серія: 03:04 ÷ 4:49 (цілком серій: 26)
Перелік серій
01. У Лірника в гостях (2010)
02. В подорож за казками (2010)
03. Луганський степ (2010)
04. Легедзине (2009)
05. Кривий Ріг (2010)
06. Шешори (2010)
07. Тернопільська квітка (2010)
08. Опук (2010)
09. Про Львів (2010)
10. Таки Одеса! (2011)
11. Чаша Ярослава (2011)
12. Чарівна грязюка (Саки, Крим) (2011)
13. Чому Вилкове (2011)
14. Верхівня (Житомирщина) (2011)
15. Хто живе на дні Пісочного (Шацькі озера) (2011)
16. Писанкова історія (2014)
17. Сонячний камінь (Рівненські ліси) (2012)
18. Чорне озеро (Знам’янка, Кіровоградщина) (2012)
19. Петриківка (2012)
20. Умань (2012)
21. Казочка про місто Борщів (Тернопільщина) (2012)
22. Мелітополь (2012)
23. Легенда про Святогора (2012)
24. Козацька дума про Якима, віргів та царя Клюка (2012)
25. Чорнозем (Чернігівщина) (2013)
26. Башта Беати (Дубно, Рівненщина) (2013)
Якість: HDTV 1080i
Відео:
кодек:
розмір кадру: 1920 х 1080
бітрейт: 8979 ÷ 9690 Кбіт/с

Аудіо:
мова: українська
переклад: оригінал
кодек: 5.1
бітрейт: 384 Кбіт/с
MediaInfo
Код:
Video
ID                          : 1
Format                      : AVC
Format/Info                 : Advanced Video Codec
Format profile              : [email protected]
Format settings, CABAC      : Yes
Format settings, ReFrames   : 4 frames
Codec ID                    : V_MPEG4/ISO/AVC
Duration                    : 3 min 4 s
Bit rate                    : 9 210 kb/s
Width                       : 1 920 pixels
Height                      : 1 080 pixels
Display aspect ratio        : 16:9
Frame rate mode             : Variable
Frame rate                  : 50.000 FPS
Original frame rate         : 25.000 FPS
Standard                    : Component
Color space                 : YUV
Chroma subsampling          : 4:2:0
Bit depth                   : 8 bits
Scan type                   : Interlaced
Scan type, store method     : Separated fields
Scan order                  : Top Field First
Bits/(Pixel*Frame)          : 0.089
Stream size                 : 202 MiB (96%)
Title                       : e01 У Лірника в гостях. HDTV 1080i [Hurtom-Sando7]
Language                    : Ukrainian
Default                     : Yes
Forced                      : No
Color range                 : Limited
Color primaries             : BT.709
Transfer characteristics    : BT.709
Matrix coefficients         : BT.709

Audio
ID                          : 2
Format                      : AC-3
Format/Info                 : Audio Coding 3
Mode extension              : CM (complete main)
Format settings, Endianness : Big
Codec ID                    : A_AC3
Duration                    : 3 min 4 s
Bit rate mode               : Constant
Bit rate                    : 384 kb/s
Channel(s)                  : 6 channels
Channel positions           : Front: L C R, Side: L R, LFE
Sampling rate               : 48.0 kHz
Frame rate                  : 31.250 FPS (1536 spf)
Bit depth                   : 16 bits
Compression mode            : Lossy
Stream size                 : 8.43 MiB (4%)
Title                       : Original, 5.1 384 Kbps
Language                    : Ukrainian
Default                     : Yes
Forced                      : No


Джерело:
За запис з подяка п.Sando7
Усі релізи цього мультсеріалу на Толоці


Фріліч (завантажене не впливає на рейтинг)
 Трекер:    Зареєстрований   

Завантажити український мультфільм



відео для новачків



 Зареєстрований:   2016-12-27 18:43
 Розмір:   6.9 GB 
 Оцінка мультсеріалу:   4.4/10 (Голосів: 16)
   
Anonymous 







2016-12-27 18:46  
Реліз готовий до завантаження.
Х-Хед 
VIP


З нами з: 06.05.12
Востаннє: 17.01.17
Повідомлень: 318

2016-12-27 20:39  
Щось там про чорнозем...Зараз це абстрактне поняття, бо у північнозахідній Європі, хоч не переставали давати міндобрива, але землі там в рази родючіша. А наші так звані чорноземи вже втратили втричі по гумусу та по структурі від хижацького використання.
П.С.: Зробіть AVI , то тимчасово посприяю в роздачі цих казочок.

Ваш часовий пояс: GMT + 2 Години

Нова тема   Відповісти