Завантажити та скачати торренти українською


Школа монстрів: Вітаємо у Monster High / Monster High: Welcome to Monster High (2016) 1080p Ukr/Eng | Sub Eng

Нові коментарі

Нова тема   Відповісти
Автор Повідомлення
Anonymous 







2016-12-02 01:21  
Школа монстрів: Вітаємо у Monster High / Monster High: Welcome to Monster High (2016) 1080p Ukr/Eng | Sub Eng



Жанр: сімейний, анімація, дитячий
Країна: США



Кінокомпанія: Rainmaker Animation & Visual Effects, Appa Productions
Режисер: Стівен Доннеллі / Stephen Donnelly, Оллі Рейд / Olly Reid, Jun Falkenstein / Джан Фалкенштейн
Актори: Кем Кларк / Cam Clarke, Сара Крейвенс / Sara Cravens, Касандра Морріс / Cassandra Morris, Саллі Саффіоті / Salli Saffioti, Ларіса Галахер / Larissa Gallagher, Дебі Дерріберрі / Debi Derryberry, Майкл Соріч / Michael Sorich, Бен Діскін / Ben Diskin, Джан Фалкенштейн / Jun Falkenstein, Джулі Маддалена / Julie Maddalena та інші

Сюжет:
Хочете дізнатися, як все починалося? Коли і чому виникла Школа Монстрів? Відповіді на всі питання - у новому мультфільмі про пригоди монстрів!
З давніх давен монстри жили ховаючись від людей, вважаючи їх небезпечними. Але Дракулаура, дочка Дракули, та її подружки захотіли змінити ситуацію, створивши таку школу, в якій би найрізноманітніші монстри відчували себе у безпеці.
Вирішивши здійснити цю мрію, Дракулаура та її подруги відправляються у подорож по світу, під час якої вони рятують монстрів, що переховуються у підпіллі, та потрапляють в епічні пригоди, набираючи студентів для нової Школи Монстрів.


Вікова категорія: 6+

Тривалість: 01:12:48
Якість: 1080p
Відео:
кодек:
розмір кадру: 1920 х 1080
бітрейт: 7034 Кбіт/с

Аудіо # 1:
мова: українська
переклад: професійний дубльований
кодек: 2.0
бітрейт: 192 Кбіт/с

Аудіо # 2:
мова: англійська
переклад: оригінал
кодек: 5.1
бітрейт: 640 Кбіт/с

Субтитри:
мова: англійська
тип: програмні (м'які)
формат: *.srt

Збережено оригінальні розділи, як на Blu-ray.
MediaInfo
Код:
Complete name               : Monster High. Welcome to Monster High (2016) [Ukr,Eng sub.Eng] 1080p [Hurtom].mkv
Format                      : Matroska
Format version              : Version 4 / Version 2
File size                   : 4.02 GiB
Duration                    : 1 h 13 min
Overall bit rate            : 7 866 kb/s

Video
ID                          : 1
Format                      : AVC
Format/Info                 : Advanced Video Codec
Format profile              : [email protected]
Format settings, CABAC      : Yes
Format settings, ReFrames   : 4 frames
Codec ID                    : V_MPEG4/ISO/AVC
Duration                    : 1 h 13 min
Bit rate                    : 7 034 kb/s
Width                       : 1 920 pixels
Height                      : 1 080 pixels
Display aspect ratio        : 16:9
Frame rate mode             : Constant
Frame rate                  : 23.976 FPS
Color space                 : YUV
Chroma subsampling          : 4:2:0
Bit depth                   : 8 bits
Scan type                   : Progressive
Bits/(Pixel*Frame)          : 0.141
Stream size                 : 3.60 GiB (89%)
Title                       : Школа монстрів: Вітаємо у Monster High / Monster High: Welcome to Monster High (2016) 1080p [rutracker]
Writing library             : core 148 r2692 64f4e24
Encoding settings           : cabac=1 / ref=4 / deblock=1:0:0 / analyse=0x3:0x133 / me=umh / subme=7 / psy=1 / psy_rd=1.00:0.00 / mixed_ref=1 / me_range=16 / chroma_me=1 / trellis=1 / 8x8dct=1 / cqm=0 / deadzone=21,11 / fast_pskip=0 / chroma_qp_offset=-2 / threads=24 / lookahead_threads=4 / sliced_threads=0 / nr=0 / decimate=1 / interlaced=0 / bluray_compat=0 / constrained_intra=0 / bframes=3 / b_pyramid=2 / b_adapt=1 / b_bias=0 / direct=1 / weightb=1 / open_gop=0 / weightp=2 / keyint=250 / keyint_min=23 / scenecut=40 / intra_refresh=0 / rc_lookahead=40 / rc=2pass / mbtree=1 / bitrate=7034 / ratetol=1.0 / qcomp=0.60 / qpmin=0 / qpmax=69 / qpstep=4 / cplxblur=20.0 / qblur=0.5 / ip_ratio=1.40 / aq=1:1.00
Language                    : English
Default                     : Yes
Forced                      : No

Audio #1
ID                          : 2
Format                      : AC-3
Format/Info                 : Audio Coding 3
Mode extension              : CM (complete main)
Format settings, Endianness : Big
Codec ID                    : A_AC3
Duration                    : 1 h 12 min
Bit rate mode               : Constant
Bit rate                    : 192 kb/s
Channel(s)                  : 2 channels
Channel positions           : Front: L R
Sampling rate               : 48.0 kHz
Frame rate                  : 31.250 FPS (1536 spf)
Compression mode            : Lossy
Stream size                 : 100.0 MiB (2%)
Title                       : Dub [TET] 2.0 192 Kbps [Hurtom]
Language                    : Ukrainian
Default                     : Yes
Forced                      : No

Audio #2
ID                          : 3
Format                      : AC-3
Format/Info                 : Audio Coding 3
Mode extension              : CM (complete main)
Format settings, Endianness : Big
Codec ID                    : A_AC3
Duration                    : 1 h 13 min
Bit rate mode               : Constant
Bit rate                    : 640 kb/s
Channel(s)                  : 6 channels
Channel positions           : Front: L C R, Side: L R, LFE
Sampling rate               : 48.0 kHz
Frame rate                  : 31.250 FPS (1536 spf)
Compression mode            : Lossy
Stream size                 : 335 MiB (8%)
Title                       : Original, 5.1 640 Kbps
Language                    : English
Default                     : No
Forced                      : No

Text
ID                          : 4
Format                      : UTF-8
Codec ID                    : S_TEXT/UTF8
Codec ID/Info               : UTF-8 Plain Text
Duration                    : 1 h 8 min
Bit rate                    : 53 b/s
Count of elements           : 860
Stream size                 : 27.0 KiB (0%)
Language                    : English
Default                     : No
Forced                      : No

Menu
00:00:00.000                : en:00:00:00.000
00:06:21.131                : en:00:06:21.131
00:13:11.582                : en:00:13:11.582
00:19:04.727                : en:00:19:04.727
00:26:37.054                : en:00:26:37.054
00:30:46.636                : en:00:30:46.636
00:39:03.132                : en:00:39:03.132
00:46:33.749                : en:00:46:33.749
00:51:09.275                : en:00:51:09.275
00:58:34.136                : en:00:58:34.136
01:03:52.495                : en:01:03:52.495
01:09:29.624                : en:01:09:29.624


Джерело: &
Подяка Neytreenor'у за запис звуку з ТБ, та drop_plz за зведення

ЗАЛИШАЙТЕСЬ ЯКОМОГА ДОВШЕ НА РОЗДАЧІ
ЗАВАНТАЖИВ САМ - ДАЙ ЗАВАНТАЖИТИ ІНШИМ!


 Трекер:    Зареєстрований   

Завантажити / скачати мультфільм українською



відео для новачків



 Зареєстрований:   2016-12-02 01:50
 Розмір:   4.02 GB 
 Оцінка мультфільму:   10/10 (Голосів: 2)
   
Ваш часовий пояс: GMT + 2 Години

Нова тема   Відповісти