Лють у Гарлемі / A Rage in Harlem (1991) 1080p Ukr/Eng

Нові коментарі

Нова тема   Відповісти
Останній раз роздавалося staf777 (2017-01-21)
Автор Повідомлення
staf777 
Відео Гуртом - підтримка та поширення
Відео Гуртом - підтримка та поширення


З нами з: 16.11.16
Востаннє: 21.01.17
Повідомлень: 371

2016-12-01 14:57  
Лють у Гарлемі / A Rage in Harlem (1991) 1080p Ukr/Eng


Лють у Гарлемі / A Rage in Harlem (1991) 1080p Ukr/Eng


Жанр: кримінальний, комедія
Країна: США, Великобританія



Кінокомпанія: Miramax Films, Palace Pictures
Режисер: Білл Дьюк
Актори: Форест Уїтакер, Грегорі Хайнс, Робін Гівенс, Закес Мокан, Денні Гловер, Баджо Джола, Джон Тоулс-Бей, Тайлер Коллінз, Уенделл Пірс, Хелен Мартін, Рон Тейлор, Семм-Арт Вільямс, Стек Пірс, Леонард Джексон, Рейнальдо Рей, Артур Бергхардт, Скрімін Джей Хокінс, Джордж Уоллес

Сюжет:
Дія відбувається в 1956 році. Гангстер Голді разом зі своєю подружкою Іммабель провертають одну справу. Але після того, як золото вже у них, дівчина разом з золотом зникає і ховається в Гарлемі. Притулок їй надає бухгалтер Джексон.


Тривалість: 01:47:53
Якість: 1080p
Відео:
кодек:
розмір кадру: 1920x1080
бітрейт: 10.4 Мбіт/сек

Аудіо # 1:
мова: українська
переклад: багатоголосий закадровий
кодек: 2.0
бітрейт: 192 кб/с

Аудіо # 2:
мова: англійська
переклад: оригінал
кодек: 2.0
бітрейт: 192 кб/с
Скріншоти




MI
Загальна інформація
Унікальний ID : 250578316872736006827998933132746914036 (0xBC83A0DE082070B0AB05BF655B8B78F4)
Повна назва : K:\Фільми в HD\Комедія\A Rage in Harlem (1991) 1080p [Rip by staf777].mkv
Формат : Matroska
Версія формату : Version 4 / Version 2
Розмір файлу : 8.09 ГіБ
Тривалість : 1 год.
Загальний бітрейт : 10.7 Мбіт/сек
Назва фільму : A Rage in Harlem (1991) 1080p [Rip by staf777]
Дата кодування : UTC 2016-12-01 12:22:16
Програма кодування : mkvmerge v9.5.0 ('Quiet Fire') 64bit
Бібліотека кодування : libebml v1.3.4 + libmatroska v1.4.5
Attachements : cover.jpg.jpg / poster.jpg
DURATION : 01:47:53.824000000
NUMBER_OF_FRAMES : 202307
NUMBER_OF_BYTES : 155371776
_STATISTICS_WRITING_APP : mkvmerge v9.5.0 ('Quiet Fire') 64bit
_STATISTICS_WRITING_DATE_UTC : 2016-12-01 12:22:16
_STATISTICS_TAGS : BPS DURATION NUMBER_OF_FRAMES NUMBER_OF_BYTES

Відео
Ідентифікатор : 1
Формат : AVC
Формат/Відомості : Advanced Video Codec
Профіль формату : [email protected]
Налаштування формату, CABAC : Так
Налаштування формату, ReFrames : 4 кадр(-и,-ів)
Ідентифікатор кодеку : V_MPEG4/ISO/AVC
Тривалість : 1 год.
Бітрейт : 10.4 Мбіт/сек
Ширина кадру : 1 920 пікс.
Висота кадру : 1 080 пікс.
Співвідношення сторін екрану : 16:9
Режим частоти кадрів : Постійний
Частота кадрів : 23.976 кадр/сек
Простір кольору : YUV
Субдискретизація хроматичності : 4:2:0
Бітова глибина : 8 біт
Тип сканування : Прогресивний
Біт/(Пікселі*Кадри) : 0.208
Розмір потоку : 7.64 ГіБ (94%)
Заголовок : A Rage in Harlem (1991) 1080p [Rip by staf777]
Бібліотека кодування : core 142 r2431 ac76440
Налаштування бібліот. кодування : cabac=1 / ref=4 / deblock=1:0:0 / analyse=0x3:0x133 / me=umh / subme=8 / psy=1 / psy_rd=1.00:0.00 / mixed_ref=1 / me_range=16 / chroma_me=1 / trellis=1 / 8x8dct=1 / cqm=0 / deadzone=21,11 / fast_pskip=0 / chroma_qp_offset=-2 / threads=6 / lookahead_threads=1 / sliced_threads=0 / nr=0 / decimate=1 / interlaced=0 / bluray_compat=0 / constrained_intra=0 / bframes=3 / b_pyramid=2 / b_adapt=1 / b_bias=0 / direct=1 / weightb=1 / open_gop=0 / weightp=2 / keyint=250 / keyint_min=23 / scenecut=40 / intra_refresh=0 / rc_lookahead=40 / rc=2pass / mbtree=1 / bitrate=10356 / ratetol=1.0 / qcomp=0.60 / qpmin=0 / qpmax=69 / qpstep=4 / cplxblur=20.0 / qblur=0.5 / ip_ratio=1.40 / aq=1:1.00
Мова : English
Default : Так
Forced : Ні
DURATION : 01:47:53.801000000
NUMBER_OF_FRAMES : 155216
NUMBER_OF_BYTES : 8376379397
_STATISTICS_WRITING_APP : mkvmerge v9.5.0 ('Quiet Fire') 64bit
_STATISTICS_WRITING_DATE_UTC : 2016-12-01 12:22:16
_STATISTICS_TAGS : BPS DURATION NUMBER_OF_FRAMES NUMBER_OF_BYTES

Аудіо #1
Ідентифікатор : 2
Формат : AC-3
Формат/Відомості : Audio Coding 3
Профіль : CM (complete main)
Налаштування формату, Endianness : Big
Ідентифікатор кодеку : A_AC3
Тривалість : 1 год.
Режим розрахунку бітрейта : Постійний (CBR)
Бітрейт : 192 Кбіт/сек
Кількість каналів : 2 канал(-и,-ів)
Позиції каналів : Front: L R
Частота дискретизації : 48.0 кГц
Тип стиснення : Із втратами
Розмір потоку : 148 МіБ (2%)
Заголовок : 2.0 192 [MVO-UA-AMC]
Мова : Ukrainian
Default : Так
Forced : Так

Аудіо #2
Ідентифікатор : 3
Формат : AC-3
Формат/Відомості : Audio Coding 3
Профіль : CM (complete main)
Налаштування формату, Endianness : Big
Ідентифікатор кодеку : A_AC3
Тривалість : 1 год.
Режим розрахунку бітрейта : Постійний (CBR)
Бітрейт : 192 Кбіт/сек
Кількість каналів : 2 канал(-и,-ів)
Позиції каналів : Front: L R
Частота дискретизації : 48.0 кГц
Тип стиснення : Із втратами
Розмір потоку : 148 МіБ (2%)
Заголовок : 2.0 192 [Original]
Мова : English
Default : Ні
Forced : Ні
Джерело: & ex.ua
Подяка slavik_v_z за запис звуку з amc та Arsenfpu за готовий реліз з ex.ua
Особиста оцінка: 8 - мені сподобалося


Фріліч (завантажене не впливає на рейтинг)
 Трекер:    Зареєстрований   

Завантажити фільм українською



відео для новачків



 Зареєстрований:   2016-12-01 18:04
 Розмір:   8.09 GB 
 Оцінка фільму:   5.5/10 (Голосів: 2)
   
Інші релізи
   Лють у Гарлемі / A Rage in Harlem (1991) Ukr/Eng Arsenfpu  2 / 0   1.96 GB   2016-10-07 19:54 
bot 
робот


З нами з: 30.09.07
Востаннє: 26.05.05
Повідомлень: 16362

2016-12-01 14:57  
Тему перенесено з Фільми в HD до форуму Анонси релізів


staf777

bot 
робот


З нами з: 30.09.07
Востаннє: 26.05.05
Повідомлень: 16362

2016-12-01 17:52  
Тему перенесено з Анонси релізів до форуму Фільми в HD


staf777

lex 
Відео Гуртом - підтримка та поширення
Відео Гуртом - підтримка та поширення


З нами з: 25.12.07
Востаннє: 20.01.17
Повідомлень: 511

2016-12-08 23:46  
і сюди зауваження. нашо таке робити
файл з ексу

General
Unique ID : 243413487541277661520790124991267411770 (0xB71FBB81FF3ED38CB8B315195BE7173A)
Complete name : H:\ex.ua\A Rage in Harlem (1991) [Ukr,Eng] 1080p [Hurtom].mkv
Format : Matroska
Format version : Version 2
File size : 8.09 GiB
Duration : 1 h 47 min
Overall bit rate : 10.7 Mb/s
Encoded date : UTC 2016-10-07 10:19:09
Writing application : mkvmerge v5.4.0 ('Piper') built on Mar 10 2012 13:34:39
Writing library : libebml v1.2.3 + libmatroska v1.3.0
Attachments : poster.jpg

Video
ID : 1
Format : AVC
Format/Info : Advanced Video Codec
Format profile : [email protected]
Format settings, CABAC : Yes
Format settings, ReFrames : 4 frames
Muxing mode : Header stripping
Codec ID : V_MPEG4/ISO/AVC
Duration : 1 h 47 min
Bit rate : 10.4 Mb/s
Width : 1 920 pixels
Height : 1 080 pixels
Display aspect ratio : 16:9
Frame rate mode : Constant
Frame rate : 23.976 (24000/1001) FPS
Color space : YUV
Chroma subsampling : 4:2:0
Bit depth : 8 bits
Scan type : Progressive
Bits/(Pixel*Frame) : 0.208
Stream size : 7.64 GiB (94%)
Writing library : core 142 r2431 ac76440
Encoding settings : cabac=1 / ref=4 / deblock=1:0:0 / analyse=0x3:0x133 / me=umh / subme=8 / psy=1 / psy_rd=1.00:0.00 / mixed_ref=1 / me_range=16 / chroma_me=1 / trellis=1 / 8x8dct=1 / cqm=0 / deadzone=21,11 / fast_pskip=0 / chroma_qp_offset=-2 / threads=6 / lookahead_threads=1 / sliced_threads=0 / nr=0 / decimate=1 / interlaced=0 / bluray_compat=0 / constrained_intra=0 / bframes=3 / b_pyramid=2 / b_adapt=1 / b_bias=0 / direct=1 / weightb=1 / open_gop=0 / weightp=2 / keyint=250 / keyint_min=23 / scenecut=40 / intra_refresh=0 / rc_lookahead=40 / rc=2pass / mbtree=1 / bitrate=10356 / ratetol=1.0 / qcomp=0.60 / qpmin=0 / qpmax=69 / qpstep=4 / cplxblur=20.0 / qblur=0.5 / ip_ratio=1.40 / aq=1:1.00
Language : English
Default : Yes
Forced : No

Audio #1
ID : 2
Format : AC-3
Format/Info : Audio Coding 3
Mode extension : CM (complete main)
Format settings, Endianness : Big
Muxing mode : Header stripping
Codec ID : A_AC3
Duration : 1 h 47 min
Bit rate mode : Constant
Bit rate : 192 kb/s
Channel(s) : 2 channels
Channel positions : Front: L R
Sampling rate : 48.0 kHz
Frame rate : 31.250 FPS (1536 spf)
Compression mode : Lossy
Stream size : 148 MiB (2%)
Default : Yes
Forced : No

Audio #2
ID : 3
Format : AC-3
Format/Info : Audio Coding 3
Mode extension : CM (complete main)
Format settings, Endianness : Big
Muxing mode : Header stripping
Codec ID : A_AC3
Duration : 1 h 47 min
Bit rate mode : Constant
Bit rate : 192 kb/s
Channel(s) : 2 channels
Channel positions : Front: L R
Sampling rate : 48.0 kHz
Frame rate : 31.250 FPS (1536 spf)
Compression mode : Lossy
Stream size : 148 MiB (2%)
Title : Original
Language : English
Default : No
Forced : No

Text #1
ID : 4
Format : UTF-8
Codec ID : S_TEXT/UTF8
Codec ID/Info : UTF-8 Plain Text
Language : English
Default : No
Forced : No

Text #2
ID : 5
Format : UTF-8
Codec ID : S_TEXT/UTF8
Codec ID/Info : UTF-8 Plain Text
Language : Spanish
Default : No
Forced : No

Text #3
ID : 6
Format : UTF-8
Codec ID : S_TEXT/UTF8
Codec ID/Info : UTF-8 Plain Text
Language : Portuguese
Default : No
Forced : No
ваш фал

General
Unique ID : 250578316872736006827998933132746914036 (0xBC83A0DE082070B0AB05BF655B8B78F4)
Complete name : H:\ex.ua\A Rage in Harlem (1991) 1080p [Rip by staf777].mkv
Format : Matroska
Format version : Version 4 / Version 2
File size : 8.09 GiB
Duration : 1 h 47 min
Overall bit rate : 10.7 Mb/s
Movie name : A Rage in Harlem (1991) 1080p [Rip by staf777]
Encoded date : UTC 2016-12-01 12:22:16
Writing application : mkvmerge v9.5.0 ('Quiet Fire') 64bit
Writing library : libebml v1.3.4 + libmatroska v1.4.5
Cover : Yes
Attachments : cover.jpg.jpg / poster.jpg

Video
ID : 1
Format : AVC
Format/Info : Advanced Video Codec
Format profile : [email protected]
Format settings, CABAC : Yes
Format settings, ReFrames : 4 frames
Codec ID : V_MPEG4/ISO/AVC
Duration : 1 h 47 min
Bit rate : 10.4 Mb/s
Width : 1 920 pixels
Height : 1 080 pixels
Display aspect ratio : 16:9
Frame rate mode : Constant
Frame rate : 23.976 (24000/1001) FPS
Color space : YUV
Chroma subsampling : 4:2:0
Bit depth : 8 bits
Scan type : Progressive
Bits/(Pixel*Frame) : 0.208
Stream size : 7.64 GiB (94%)
Title : A Rage in Harlem (1991) 1080p [Rip by staf777]
Writing library : core 142 r2431 ac76440
Encoding settings : cabac=1 / ref=4 / deblock=1:0:0 / analyse=0x3:0x133 / me=umh / subme=8 / psy=1 / psy_rd=1.00:0.00 / mixed_ref=1 / me_range=16 / chroma_me=1 / trellis=1 / 8x8dct=1 / cqm=0 / deadzone=21,11 / fast_pskip=0 / chroma_qp_offset=-2 / threads=6 / lookahead_threads=1 / sliced_threads=0 / nr=0 / decimate=1 / interlaced=0 / bluray_compat=0 / constrained_intra=0 / bframes=3 / b_pyramid=2 / b_adapt=1 / b_bias=0 / direct=1 / weightb=1 / open_gop=0 / weightp=2 / keyint=250 / keyint_min=23 / scenecut=40 / intra_refresh=0 / rc_lookahead=40 / rc=2pass / mbtree=1 / bitrate=10356 / ratetol=1.0 / qcomp=0.60 / qpmin=0 / qpmax=69 / qpstep=4 / cplxblur=20.0 / qblur=0.5 / ip_ratio=1.40 / aq=1:1.00
Language : English
Default : Yes
Forced : No

Audio #1
ID : 2
Format : AC-3
Format/Info : Audio Coding 3
Mode extension : CM (complete main)
Format settings, Endianness : Big
Codec ID : A_AC3
Duration : 1 h 47 min
Bit rate mode : Constant
Bit rate : 192 kb/s
Channel(s) : 2 channels
Channel positions : Front: L R
Sampling rate : 48.0 kHz
Frame rate : 31.250 FPS (1536 spf)
Compression mode : Lossy
Stream size : 148 MiB (2%)
Title : 2.0 192 [MVO-UA-AMC]
Language : Ukrainian
Default : Yes
Forced : Yes

Audio #2
ID : 3
Format : AC-3
Format/Info : Audio Coding 3
Mode extension : CM (complete main)
Format settings, Endianness : Big
Codec ID : A_AC3
Duration : 1 h 47 min
Bit rate mode : Constant
Bit rate : 192 kb/s
Channel(s) : 2 channels
Channel positions : Front: L R
Sampling rate : 48.0 kHz
Frame rate : 31.250 FPS (1536 spf)
Compression mode : Lossy
Stream size : 148 MiB (2%)
Title : 2.0 192 [Original]
Language : English
Default : No
Forced : No

staf777 
Відео Гуртом - підтримка та поширення
Відео Гуртом - підтримка та поширення


З нами з: 16.11.16
Востаннє: 21.01.17
Повідомлень: 371

2017-01-18 14:59  
lex написано:
Muxing mode : Header stripping

Ви начебто на Толоці давненько а правила не знаєте Muxing mode : Header stripping

Ваш часовий пояс: GMT + 2 Години

Нова тема   Відповісти