Завантажити та скачати торренти українською


Загін самогубців [Театральна версія] / Suicide Squad [Theatrical Cut] (2016) 1080p 3D [HalfOverUnder] Ukr/Eng | Sub Eng

Нові коментарі

Нова тема   Відповісти
Автор Повідомлення
-VipeR- 
VIP


З нами з: 17.07.08
Востаннє: 04.12.16
Повідомлень: 275

2016-12-01 14:40  
Загін самогубців [Театральна версія] / Suicide Squad [Theatrical Cut] (2016) 1080p 3D [HalfOverUnder] Ukr/Eng | Sub Eng

Загін самогубців [Театральна версія] / Suicide Squad [Theatrical Cut] (2016) 1080p 3D [HalfOverUnder] Ukr/Eng | Sub Eng


Жанр: екшн
Країна: США, Канада



Кінокомпанія: Atlas Entertainment, DC Comics, DC Entertainment, Dune Entertainment, Lin Pictures, Warner Bros. Pictures
Режисер: Девід Ейр / David Ayer
Актори: Марго Роббі / Margot Robbie, Вілл Сміт / Will Smith, Джаред Лето / Jared Leto, Джей Кортні / Jai Courtney, Кара Делавінь / Cara Delevingne, Джоел Кіннаман / Joel Kinnaman, Джей Ернандес / Jay Hernandez, Адевале Акіноє-Аґбаже / Adewale Akinnuoye-Agbaje, Карен Фукугара / Karen Fukuhara, Віола Девіс / Viola Davis та інші

Сюжет:
Важкі часи вимагають важких рішень. Урядове агентство змушене зібрати групу злодіїв для виконання небезпечних завдань і цілей. "Загін самогубців" натомість отримає більш короткі терміни позбавлення волі. Але чи варто випускати монстрів навіть заради доброї справи?


Тривалість: 02:02:53
Якість: 1080p 3D [HalfOverUnder] batonchik
Відео:
кодек:
розмір кадру: 1920 x 1080
бітрейт: 9.2 мбіт/с

Аудіо:
мова: українська
переклад: професійний дубльований
кодек: 2.0
бітрейт: 192 кб/с

Аудіо 2:
мова: англійська
переклад: оригінал
кодек: 5.1
бітрейт: 640 кб/с

Аудіо 3:
мова: англійська (Descriptive)
переклад: оригінал
кодек: 2.0
бітрейт: 128 кб/с

Субтитри:
мова: українська (Форсовані)
тип: програмні (м'які)
формат: *.srt

Субтитри 2:
мова: англійська (Повні)
тип: програмні (м'які)
формат: *.srt
MediaInfo
Код:
General
Unique ID                      : 214310530084395631150322156561358267089 (0xA13AB4EC2C1E71A88C2EF2C365CA22D1)
Complete name                  : D:\3D\Художні\Suicide Squad [Theatrical] 1080p 3D [HalfOverUnder] (2016)  [Ukr,Eng sub.Eng].mkv
Format                         : Matroska
Format version                 : Version 4 / Version 2
File size                      : 8.72 GiB
Duration                       : 2h 2mn
Overall bit rate               : 10.2 Mbps
Movie name                     : Загін Самогубців [Театральна Версія] у 3D
Encoded date                   : UTC 2016-12-01 12:07:01
Writing application            : mkvmerge v8.8.0 ('Wind at my back') 64bit
Writing library                : libebml v1.3.3 + libmatroska v1.4.4
Cover                          : Yes
Attachments                    : cover.jpg

Video
ID                             : 1
Format                         : AVC
Format/Info                    : Advanced Video Codec
Format profile                 : [email protected]
Format settings, CABAC         : Yes
Format settings, ReFrames      : 4 frames
Codec ID                       : V_MPEG4/ISO/AVC
Duration                       : 2h 2mn
Bit rate                       : 9 200 Kbps
Width                          : 1 920 pixels
Height                         : 1 080 pixels
Display aspect ratio           : 16:9
Frame rate mode                : Constant
Frame rate                     : 23.976 (24000/1001) fps
Color space                    : YUV
Chroma subsampling             : 4:2:0
Bit depth                      : 8 bits
Scan type                      : Progressive
Bits/(Pixel*Frame)             : 0.185
Stream size                    : 7.90 GiB (91%)
Title                          : Отряд самоубийц_Suicide Squad.2016..3D.Half-T&B.1080p.NNMClub
Writing library                : core 148 r2721 72d53ab
Encoding settings              : cabac=1 / ref=4 / deblock=1:-3:-3 / analyse=0x3:0x133 / me=umh / subme=9 / psy=1 / psy_rd=0.80:0.05 / mixed_ref=1 / me_range=32 / chroma_me=1 / trellis=2 / 8x8dct=1 / cqm=0 / deadzone=5,5 / fast_pskip=0 / chroma_qp_offset=-3 / threads=12 / lookahead_threads=2 / sliced_threads=0 / nr=0 / decimate=0 / interlaced=0 / bluray_compat=0 / constrained_intra=0 / bframes=7 / b_pyramid=2 / b_adapt=2 / b_bias=0 / direct=3 / weightb=1 / open_gop=0 / weightp=2 / keyint=250 / keyint_min=23 / scenecut=40 / intra_refresh=0 / rc_lookahead=60 / rc=2pass / mbtree=0 / bitrate=9200 / ratetol=1.0 / qcomp=0.80 / qpmin=0 / qpmax=69 / qpstep=4 / cplxblur=20.0 / qblur=0.5 / vbv_maxrate=62500 / vbv_bufsize=78125 / nal_hrd=none / filler=0 / frame-packing=4 / ip_ratio=1.10 / pb_ratio=1.10 / aq=2:0.70
Language                       : English
Default                        : Yes
Forced                         : No
Color range                    : Limited
Matrix coefficients            : BT.709

Audio #1
ID                             : 2
Format                         : AC-3
Format/Info                    : Audio Coding 3
Mode extension                 : CM (complete main)
Format settings, Endianness    : Big
Codec ID                       : A_AC3
Duration                       : 2h 2mn
Bit rate mode                  : Constant
Bit rate                       : 192 Kbps
Channel(s)                     : 2 channels
Channel positions              : Front: L R
Sampling rate                  : 48.0 KHz
Frame rate                     : 31.250 fps (1536 spf)
Compression mode               : Lossy
Delay relative to video        : 1s 0ms
Stream size                    : 169 MiB (2%)
Title                          : Dub [Postmodern] 2.0 192 Kbps [Hurtom-Covenant]
Language                       : Ukrainian
Default                        : Yes
Forced                         : No

Audio #2
ID                             : 3
Format                         : AC-3
Format/Info                    : Audio Coding 3
Mode extension                 : CM (complete main)
Format settings, Endianness    : Big
Codec ID                       : A_AC3
Duration                       : 2h 2mn
Bit rate mode                  : Constant
Bit rate                       : 640 Kbps
Channel(s)                     : 6 channels
Channel positions              : Front: L C R, Side: L R, LFE
Sampling rate                  : 48.0 KHz
Frame rate                     : 31.250 fps (1536 spf)
Compression mode               : Lossy
Stream size                    : 563 MiB (6%)
Title                          : Оригинал
Language                       : English
Default                        : No
Forced                         : No

Audio #3
ID                             : 4
Format                         :
Format/Info                    : Advanced Audio Codec
Format profile                 : LC
Codec ID                       : A_AAC
Duration                       : 2h 2mn
Bit rate                       : 125 Kbps
Channel(s)                     : 2 channels
Channel positions              : Front: L R
Sampling rate                  : 44.1 KHz
Frame rate                     : 43.066 fps (1024 spf)
Compression mode               : Lossy
Stream size                    : 110 MiB (1%)
Title                          : Descriptive, 2.0 128 Kbps
Language                       : English
Default                        : No
Forced                         : No

Text #1
ID                             : 5
Format                         : UTF-8
Codec ID                       : S_TEXT/UTF8
Codec ID/Info                  : UTF-8 Plain Text
Duration                       : 1h 51mn
Bit rate                       : 5 bps
Count of elements              : 96
Stream size                    : 4.49 KiB (0%)
Title                          : Ukr Forced
Language                       : Ukrainian
Default                        : Yes
Forced                         : Yes

Text #2
ID                             : 6
Format                         : UTF-8
Codec ID                       : S_TEXT/UTF8
Codec ID/Info                  : UTF-8 Plain Text
Duration                       : 1h 55mn
Bit rate                       : 46 bps
Count of elements              : 1447
Stream size                    : 39.3 KiB (0%)
Title                          : Eng full
Language                       : English
Default                        : No
Forced                         : No

Menu
00:00:00.000                   : en:1
00:09:07.000                   : en:2
00:19:03.000                   : en:3
00:29:27.000                   : en:4
00:39:17.000                   : en:5
00:50:21.000                   : en:6
01:00:10.000                   : en:7
01:11:46.000                   : en:8
01:22:46.000                   : en:9
01:32:01.000                   : en:10
01:39:21.000                   : en:11
01:52:27.000                   : en:12
Скріншоти


Джерело: &
Особиста оцінка: 10 - без зайвих вагань рекомендую всім!

Подяка за українську доріжку пану Covenant'у. Українські форсовані субтитри - igor911.

Відео для перегляду на 3D обладнанні!


 Трекер:    Зареєстрований   

Завантажити / скачати фільм українською



відео для новачків



 Зареєстрований:   2016-12-01 14:40
 Розмір:   8.72 GB 
 Оцінка фільму:   10/10 (Голосів: 1)
   
11FrYkT 
Модератор відео


З нами з: 20.02.11
Востаннє: 04.12.16
Повідомлень: 3079

2016-12-01 23:00  
-VipeR- написано:
Title                          : Отряд самоубийц_Suicide Squad.2016..3D.Half-T&B.1080p.NNMClub

надалі прохання такі речі видаляти
також скріни замініть на PNG

Ваш часовий пояс: GMT + 2 Години

Нова тема   Відповісти