Завантажити та скачати торренти українською


Щасливчик Гілмор / Happy Gilmore (1996) 720p Ukr/Eng | Sub Eng

Нові коментарі

Нова тема   Відповісти
Автор Повідомлення
Anonymous 







2016-11-30 15:13  
Щасливчик Гілмор / Happy Gilmore (1996) 720p Ukr/Eng | Sub Eng



Український та альтернативний постери




повнорозмірні зображення відкриються по кліку (з натиснутим CTRL чи кліком середньою кнопкою мишки - у новій вкладці)


Жанр: комедія, спорт
Країна: США



Кінокомпанія: Universal Pictures, Brillstein-Grey Entertainment, Robert Simonds Productions
Режисер: Денніс Дуґан / Dennis Dugan
Актори: Адам Сендлер / Adam Sandler, Крістофер МакДональд / Christopher McDonald, Джулі Бовен / Julie Bowen, Френсіс Бей / Frances Bay, Карл Везерс / Carl Weathers, Аллен Коверт / Allen Covert, Роберт Шміґель / Robert Smigel, Боб Баркер / Bob Barker, Річард Кіл / Richard Kiel та інші

Сюжет:
Ґілмор з дитинства обожнював хокей, але, крім гарматного удару, здібностей у нього до цієї гри "справжніх чоловіків" не було. Випадково йому до рук потрапила ключка для гольфа, і удар його був найпотужнішим за всю історію цього виду спорту на галявинах, який він так зневажав. Але на одній зневазі далеко не заїдеш, а от за перемогу у гольф платять великі гроші. І тут за справу береться професійний тренер з гольфу, якому буде досить важко з таким "щасливчиком" як Ґілмор…


Рейтинг MPAA: PG-13 - дітям до 13 років перегляд не бажаний
Вікова категорія: 12+

Тривалість: 01:31:55
Якість: 720p
Відео:
кодек:
розмір кадру: 1280 х 694
бітрейт: 6467 Кбіт/с [crf=17]

Аудіо # 1:
мова: українська
переклад: багатоголосий закадровий
кодек: 2.0
бітрейт: 192 Кбіт/с

Аудіо # 2:
мова: англійська
переклад: оригінал
кодек: 5.1
бітрейт: 640 Кбіт/с

Субтитри # 1-2:
мова: англійська (повні, SDH)
тип: програмні (м'які)
формат: *.srt

Збережено оригінальні розділи, як на Blu-ray.
MediaInfo та log
Код:
Complete name               : Happy Gilmore (1996) [Ukr,Eng sub.Eng] 720p [Hurtom].mkv
Format                      : Matroska
Format version              : Version 4 / Version 2
File size                   : 4.69 GiB
Duration                    : 1 h 31 min
Overall bit rate            : 7 302 kb/s

Video
ID                          : 1
Format                      : AVC
Format/Info                 : Advanced Video Codec
Format profile              : [email protected]
Format settings, CABAC      : Yes
Format settings, ReFrames   : 8 frames
Codec ID                    : V_MPEG4/ISO/AVC
Duration                    : 1 h 31 min
Bit rate                    : 6 467 kb/s
Width                       : 1 280 pixels
Height                      : 694 pixels
Display aspect ratio        : 1.85:1
Frame rate mode             : Constant
Frame rate                  : 23.976 (24000/1001) FPS
Color space                 : YUV
Chroma subsampling          : 4:2:0
Bit depth                   : 8 bits
Scan type                   : Progressive
Bits/(Pixel*Frame)          : 0.304
Stream size                 : 4.15 GiB (89%)
Title                       : Щасливчик Гілмор / Happy Gilmore (1996) 720p [HDClub]
Writing library             : core 148 r2721kMod 72d53ab
Encoding settings           : cabac=1 / ref=8 / deblock=1:-3:-3 / analyse=0x3:0x133 / me=umh / subme=10 / psy=1 / fade_compensate=0.00 / psy_rd=1.00:0.15 / mixed_ref=1 / me_range=32 / chroma_me=1 / trellis=2 / 8x8dct=1 / cqm=0 / deadzone=21,11 / fast_pskip=0 / chroma_qp_offset=-3 / threads=12 / lookahead_threads=2 / sliced_threads=0 / nr=0 / decimate=1 / interlaced=0 / bluray_compat=0 / constrained_intra=0 / fgo=0 / bframes=8 / b_pyramid=2 / b_adapt=2 / b_bias=0 / direct=3 / weightb=1 / open_gop=0 / weightp=2 / keyint=240 / keyint_min=23 / scenecut=40 / intra_refresh=0 / rc_lookahead=50 / rc=crf / mbtree=0 / crf=17.0000 / qcomp=0.60 / qpmin=0 / qpmax=69 / qpstep=4 / vbv_maxrate=62500 / vbv_bufsize=78125 / crf_max=0.0 / nal_hrd=none / filler=0 / ip_ratio=1.40 / pb_ratio=1.30 / aq=1:1.00
Language                    : English
Default                     : Yes
Forced                      : No

Audio #1
ID                          : 2
Format                      : AC-3
Format/Info                 : Audio Coding 3
Mode extension              : CM (complete main)
Format settings, Endianness : Big
Codec ID                    : A_AC3
Duration                    : 1 h 31 min
Bit rate mode               : Constant
Bit rate                    : 192 kb/s
Channel(s)                  : 2 channels
Channel positions           : Front: L R
Sampling rate               : 48.0 kHz
Frame rate                  : 31.250 FPS (1536 spf)
Bit depth                   : 16 bits
Compression mode            : Lossy
Stream size                 : 126 MiB (3%)
Title                       : MVO [NLO.TV] 2.0 192 Kbps [Hurtom-patriot2305,Sando7,POMEO]
Language                    : Ukrainian
Default                     : Yes
Forced                      : No

Audio #2
ID                          : 3
Format                      : AC-3
Format/Info                 : Audio Coding 3
Mode extension              : CM (complete main)
Format settings, Endianness : Big
Codec ID                    : A_AC3
Duration                    : 1 h 31 min
Bit rate mode               : Constant
Bit rate                    : 640 kb/s
Channel(s)                  : 6 channels
Channel positions           : Front: L C R, Side: L R, LFE
Sampling rate               : 48.0 kHz
Frame rate                  : 31.250 FPS (1536 spf)
Bit depth                   : 16 bits
Compression mode            : Lossy
Stream size                 : 421 MiB (9%)
Title                       : Original, 5.1 640 Kbps
Language                    : English
Default                     : No
Forced                      : No

Text #1
ID                          : 4
Format                      : UTF-8
Codec ID                    : S_TEXT/UTF8
Codec ID/Info               : UTF-8 Plain Text
Duration                    : 1 h 27 min
Bit rate                    : 59 b/s
Count of elements           : 1113
Stream size                 : 38.2 KiB (0%)
Title                       : Eng full
Language                    : English
Default                     : No
Forced                      : No

Text #2
ID                          : 5
Format                      : UTF-8
Codec ID                    : S_TEXT/UTF8
Codec ID/Info               : UTF-8 Plain Text
Duration                    : 1 h 27 min
Bit rate                    : 79 b/s
Count of elements           : 1347
Stream size                 : 51.0 KiB (0%)
Title                       : Eng SDH
Language                    : English
Default                     : No
Forced                      : No

Menu
00:00:00.000                : :Main Titles: Born To Play Hockey
00:07:30.240                : :Grandma's Tax Trouble
00:11:07.332                : :The Amazing Golf Ball Whacker Guy
00:17:26.420                : :The Waterbury Open
00:30:48.512                : :Welcome To The Tour
00:33:41.936                : :The Psycho Golfer
00:43:13.757                : :A Disgrace To The Game
00:50:05.001                : :"Endless Love" In The Dark
00:53:35.628                : :The Price Is Wrong
01:02:57.773                : :Getting Down To Business
01:07:26.668                : :Good-Bye, Chubbs
01:09:27.079                : :Paired Off
01:14:34.552                : :Big Trouble
01:19:19.046                : :The Comeback
01:24:16.134                : :The Big Shot
01:27:11.309                : :Let's Go Home (End Titles)

Код:
raw [info]: 1280x694p 1:1 @ 24000/1001 fps (cfr)
[info]: using SAR=1/1
[info]: using cpu capabilities: MMX2 SSE2Fast SSSE3 SSE4.2 AVX XOP FMA4 LZCNT
[info]: profile High, level 4.1
[info]: frame I:1177  Avg QP:16.58  size:132684
[info]: frame P:29620 Avg QP:17.84  size: 60984
[info]: frame B:101442 Avg QP:19.94  size: 24608
[info]: consecutive B-frames:  2.1%  2.4%  7.3% 28.5% 22.1% 29.8%  4.9%  1.9%  0.9%
[info]: mb I  I16..4: 10.8% 73.1% 16.1%
[info]: mb P  I16..4:  1.6% 26.1%  2.9%  P16..4: 26.7% 20.3% 15.6%  0.8%  0.3%    skip: 5.8%
[info]: mb B  I16..4:  0.1%  4.6%  0.3%  B16..8: 35.5% 16.2%  4.9%  direct:10.3%  skip:28.0%  L0:37.0% L1:36.5% BI:26.5%
[info]: 8x8 transform intra:86.3% inter:51.0%
[info]: direct mvs  spatial:100.0% temporal:0.0%
[info]: coded y,uvDC,uvAC intra: 95.7% 89.5% 71.5% inter: 38.7% 29.6% 5.7%
[info]: i16 v,h,dc,p: 22%  6% 28% 45%
[info]: i8 v,h,dc,ddl,ddr,vr,hd,vl,hu: 14% 10% 15%  8% 10% 10% 10% 11% 12%
[info]: i4 v,h,dc,ddl,ddr,vr,hd,vl,hu: 18%  7%  5%  9% 14% 14% 12% 11% 11%
[info]: i8c dc,h,v,p: 45% 22% 19% 13%
[info]: Weighted P-Frames: Y:9.5% UV:3.0%
[info]: ref P L0: 45.4% 15.3% 18.6%  5.7%  5.7%  3.4%  3.7%  2.0%  0.2%  0.0%
[info]: ref B L0: 81.0%  9.3%  4.1%  2.4%  1.7%  1.1%  0.4%
[info]: ref B L1: 96.6%  3.4%
[info]: kb/s:6467.34
encoded 132239 frames, 5.49 fps, 6467.34 kb/s, duration 6:41:08.91
Оригінал <----------> Ріп







Джерело: &
Подяка Sando7 та POMEO за запис української доріжки з ТБ, а patriot2305 за синхронізацію.
За українізований постер дякую thefir'у.

ЗАЛИШАЙТЕСЬ ЯКОМОГА ДОВШЕ НА РОЗДАЧІ
ЗАВАНТАЖИВ САМ - ДАЙ ЗАВАНТАЖИТИ ІНШИМ!


Срібний реліз (на рейтинг впливає 50% завантаженого)
 Трекер:    Зареєстрований   

Завантажити / скачати фільм українською



відео для новачків



 Зареєстрований:   2016-11-30 16:28
 Розмір:   4.69 GB 
 Оцінка фільму:   9.3/10 (Голосів: 4)
   
Інші релізи
   Щасливчик Гілмор / Happy Gilmore (1996) 1080p Ukr/Eng | Sub Eng staf777  2 / 0   9.04 GB   2016-12-04 23:27 
   Щасливчик Гілмор / Happy Gilmore (1996) [MP4, 640x] apvAltisimo  0 / 0   589 MB   2015-08-09 11:58 
   Щасливчик Гілмор / Happy Gilmore (1996) patriot2305  3 / 0   1.45 GB   2015-06-17 07:36 
Ваш часовий пояс: GMT + 2 Години

Нова тема   Відповісти