Завантажити та скачати торренти українською


Mournful Gust - Let the Music Cry (Single) (2014) [FLAC] | Doom / Death Metal

Нові коментарі

Нова тема   Відповісти
Автор Повідомлення
kolpavel 
VIP


З нами з: 04.05.14
Востаннє: 10.12.16
Повідомлень: 1061

2016-11-26 13:23  
Mournful Gust - Let the Music Cry (Single) (2014) [FLAC] | Doom / Death Metal

Mournful Gust - Let the Music Cry (Single) (2014) [FLAC] | Doom / Death Metal


Стиль: Doom Death Metal
Країна, місто: Україна, Кривий Рiг
Сайти: Офіційний сайт
Видавець: Temptations of Resonance Records (TOR004)
Виконавці:
Бас - Сахо Мальoваний
Барабани - Микола Костецький
Гітара - Іван Селезньов
Клавіатура - Валерія Фiнiкопуло
Скрипка - Петро Воронов (треки: 3)
Вокал, слова - Владислав Шахін
Пісні:
    1. Let the Music Cry (If We Were ALIVE version) - 6:20
    2. Let the Music Cry (Album version) - 6:20
    3. Let the Music Cry (Silver Strings version) - 6:24
    4. Let the Music Cry (Live in Kiev, December 8, 2013) - 6:26
    5. Let the Music Cry (Belajane Mix) - 4:20
    6. Honey for My Wounds (Die Entweihung version) - 2:58
    7. Sleeping with My Name (Art Electronix mix) - 6:02

Тривалість: 00:39:04
Мова: англiйська
Аудіо-кодек: FLAC
Бітрейт: 933 кб/с
Джерело: трекер
Додаткова інформація:
Лог:
Exact Audio Copy V1.1 from 23. June 2015

Отчёт EAC об извлечении, выполненном 21. ноября 2016, 20:49

Mournful Gust / Let the Music Cry

Дисковод: ASUS DRW-24F1MT Adapter: 1 ID: 0

Режим чтения : Достоверность
Использование точного потока : Да
Отключение кэша аудио : Да
Использование указателей C2 : Нет

Коррекция смещения при чтении : 6
Способность читать области Lead-in и Lead-out : Нет
Заполнение пропущенных сэмплов тишиной : Да
Удаление блоков с тишиной в начале и конце : Нет
При вычислениях CRC использовались нулевые сэмплы : Да
Интерфейс : Встроенный Win32-интерфейс для Win NT/2000

Выходной формат : Пользовательский кодировщик
Выбранный битрейт : 1024 kBit/s
Качество : Высокий
Добавление ID3-тега : Нет
Утилита сжатия : C:\Program Files (x86)\Exact Audio Copy\Flac\flac.exe
Дополнительные параметры : -V -8 -T "Date=%year%" -T "Genre=%genre%" %source%

TOC извлечённого CD

Трек | Старт | Длительность | Начальный сектор | Конечный сектор
---------------------------------------------------------------------
1 | 0:00.00 | 6:22.16 | 0 | 28665
2 | 6:22.16 | 6:22.20 | 28666 | 57335
3 | 12:44.36 | 6:26.10 | 57336 | 86295
4 | 19:10.46 | 6:28.47 | 86296 | 115442
5 | 25:39.18 | 4:22.66 | 115443 | 135158
6 | 30:02.09 | 3:00.35 | 135159 | 148693
7 | 33:02.44 | 6:02.17 | 148694 | 175860

Характеристики диапазона извлечения и сообщения об ошибках

Выбранный диапазон

Имя файла G:\ВСЕ ЗАГРУЗКИ\sking\Mournful Gust - Let the Music Cry (Single) 2014\Mournful Gust - Let the Music Cry.wav

Пиковый уровень 100.0 %
Скорость извлечения 7.0 X
Качество диапазона 100.0 %
CRC теста 21386F2F
CRC копии 21386F2F
Копирование... OK

Ошибок не произошло

AccurateRip: сводка

Трек 1 отсутствует в базе данных
Трек 2 отсутствует в базе данных
Трек 3 отсутствует в базе данных
Трек 4 отсутствует в базе данных
Трек 5 отсутствует в базе данных
Трек 6 отсутствует в базе данных
Трек 7 отсутствует в базе данных

Ни одного трека нет в базе AccurateRip

Конец отчёта

---- CUETools DB Plugin V2.1.6

[CTDB TOCID: HXYFgDGA94.GeTzla5cyR8_iOaQ-] disk not present in database
Submit result: HXYFgDGA94.GeTzla5cyR8_iOaQ- has been uploaded

==== Контрольная сумма отчёта A98D43012C61FC1BCA40CDDD7866E999FD2CFA2B71B6854BFB2CA213B7890EF1 ====
(.CUE)
REM GENRE "Doom Metal"
REM DATE 2016
REM DISCID 5B092807
REM COMMENT "ExactAudioCopy v1.1"
PERFORMER "Mournful Gust"
TITLE "Let the Music Cry"
FILE "Mournful Gust - Let the Music Cry.flac" WAVE
TRACK 01 AUDIO
TITLE "1_Let The Music Cry ( If We Were ALIVE version)"
PERFORMER "Mournful Gust"
INDEX 01 00:00:00
TRACK 02 AUDIO
TITLE "2_Let The Music Cry"
PERFORMER "Mournful Gust"
INDEX 01 06:22:16
TRACK 03 AUDIO
TITLE "3_Let The Music Cry (Silver Strings version)"
PERFORMER "Mournful Gust"
INDEX 01 12:44:36
TRACK 04 AUDIO
TITLE "4_Let The Music Cry (live)"
PERFORMER "Mournful Gust"
INDEX 01 19:10:46
TRACK 05 AUDIO
TITLE "5_Let The Music Cry (Bejalane mix)"
PERFORMER "Belajane"
INDEX 01 25:39:18
TRACK 06 AUDIO
TITLE "6_Honey For My Wounds (cover by Die Entweihung)"
PERFORMER "Die Entweihung"
INDEX 01 30:02:09
TRACK 07 AUDIO
TITLE "7_Sleeping With My Name (Art Electronix mix)"
PERFORMER "Art Electronix"
INDEX 01 33:02:44


Якщо Ви справді бажаєте підтримати українське - після прослуховування, якщо музика вам сподобалась, придбайте ліцензійний диск. Підтримаймо вітчизняних виконавців!


Срібний реліз (на рейтинг впливає 50% завантаженого)
 Трекер:    Зареєстрований   

Завантажити / скачати українську музику



відео для новачків



 Зареєстрований:   2016-11-26 13:23
 Розмір:   268 MB 
 Оцінка музики:   10/10 (Голосів: 1)
   
Ваш часовий пояс: GMT + 2 Години

Нова тема   Відповісти