Завантажити та скачати торренти українською


Життя / Life (2015) 720p Ukr/Eng | Sub Eng

Нові коментарі

Нова тема   Відповісти
Автор Повідомлення
Anonymous 







2016-11-25 10:33  
Життя / Life (2015) 720p Ukr/Eng | Sub Eng

Життя / Life (2015) 720p Ukr/Eng | Sub Eng


Жанр: біографічний, драма
Країна: Велика Британія, США, Німеччина, Канада, Австралія



Кінокомпанія: See-Saw Films, Barry Films, Corner Piece Capital, Cross City Sales, Entertainment One, Film4, FilmNation Entertainment, First Generation Films, Harold Greenberg Fund, Screen Australia, Telefilm Canada
Режисер: Антон Корбейн / Anton Corbijn
Актори: Дейн ДеГаан / Dane DeHaan, Роберт Патінсон / Robert Pattinson, Джоел Едґертон / Joel Edgerton, Пітер Лукас / Peter Lucas, Лорен Ґаллагер / Lauren Gallagher, Дрю Леджер / Drew Leger, Алессандра Мастронарді / Alessandra Mastronardi, Джейсон Блікер / Jason Blicker, Бен Кінґслі / Ben Kingsley та інші

Сюжет:
Історія сходження до слави культового американського актора Джеймса Діна, знята візіонером Корбейном і зіграна найсуперечливішими і талановитими артистами нашого часу. Фотографу журналу "Life" дають завдання - зробити фотографії Джеймса Діна.

офіційний український тизер:


Рейтинг MPAA: R - особам до 17 років обов'язкова присутність батьків або дорослого опікуна
Вікова категорія: 16+

Тривалість: 01:51:19
Якість: 720p
Відео:
кодек:
розмір кадру: 1280 х 536
бітрейт: 6153 Кбіт/с [crf=16]

Аудіо # 1:
мова: українська
переклад: багатоголосий закадровий
кодек: 2.0
бітрейт: 192 Кбіт/с

Аудіо # 2:
мова: англійська
переклад: оригінал
кодек: 5.1
бітрейт: 640 Кбіт/с

Субтитри # 1-2:
мова: англійська (повні, SDH)
тип: програмні (м'які)
формат: *.srt

Збережено оригінальні розділи, як на Blu-ray.
MediaInfo та лог кодування
Код:
Complete name               : Life (2015) [Ukr,Eng sub.Eng] 720p [Hurtom].mkv
Format                      : Matroska
Format version              : Version 4 / Version 2
File size                   : 5.43 GiB
Duration                    : 1 h 51 min
Overall bit rate            : 6 988 kb/s

Video
ID                          : 1
Format                      : AVC
Format/Info                 : Advanced Video Codec
Format profile              : [email protected]
Format settings, CABAC      : Yes
Format settings, ReFrames   : 8 frames
Codec ID                    : V_MPEG4/ISO/AVC
Duration                    : 1 h 51 min
Bit rate                    : 6 153 kb/s
Width                       : 1 280 pixels
Height                      : 536 pixels
Display aspect ratio        : 2.40:1
Frame rate mode             : Constant
Frame rate                  : 23.976 (24000/1001) FPS
Color space                 : YUV
Chroma subsampling          : 4:2:0
Bit depth                   : 8 bits
Scan type                   : Progressive
Bits/(Pixel*Frame)          : 0.374
Stream size                 : 4.78 GiB (88%)
Title                       : Життя / Life (2015) [HDCLUB]
Writing library             : core 148 r2721kMod 72d53ab
Encoding settings           : cabac=1 / ref=8 / deblock=1:-3:-3 / analyse=0x3:0x133 / me=umh / subme=10 / psy=1 / fade_compensate=0.00 / psy_rd=1.05:0.00 / mixed_ref=1 / me_range=32 / chroma_me=1 / trellis=2 / 8x8dct=1 / cqm=0 / deadzone=21,11 / fast_pskip=0 / chroma_qp_offset=-2 / threads=12 / lookahead_threads=3 / sliced_threads=0 / nr=0 / decimate=1 / interlaced=0 / bluray_compat=0 / constrained_intra=0 / fgo=0 / bframes=10 / b_pyramid=2 / b_adapt=2 / b_bias=0 / direct=3 / weightb=1 / open_gop=0 / weightp=2 / keyint=240 / keyint_min=23 / scenecut=40 / intra_refresh=0 / rc=crf / mbtree=0 / crf=16.0000 / qcomp=0.60 / qpmin=0 / qpmax=69 / qpstep=4 / ip_ratio=1.25 / pb_ratio=1.15 / aq=3:0.80
Language                    : English
Default                     : Yes
Forced                      : No

Audio #1
ID                          : 2
Format                      : AC-3
Format/Info                 : Audio Coding 3
Mode extension              : CM (complete main)
Format settings, Endianness : Big
Codec ID                    : A_AC3
Duration                    : 1 h 51 min
Bit rate mode               : Constant
Bit rate                    : 192 kb/s
Channel(s)                  : 2 channels
Channel positions           : Front: L R
Sampling rate               : 48.0 kHz
Frame rate                  : 31.250 FPS (1536 spf)
Compression mode            : Lossy
Stream size                 : 153 MiB (3%)
Title                       : MVO, 2.0 [stereo] 192 Kbps [Hurtom]
Language                    : Ukrainian
Default                     : Yes
Forced                      : No

Audio #2
ID                          : 3
Format                      : AC-3
Format/Info                 : Audio Coding 3
Mode extension              : CM (complete main)
Format settings, Endianness : Big
Codec ID                    : A_AC3
Duration                    : 1 h 51 min
Bit rate mode               : Constant
Bit rate                    : 640 kb/s
Channel(s)                  : 6 channels
Channel positions           : Front: L C R, Side: L R, LFE
Sampling rate               : 48.0 kHz
Frame rate                  : 31.250 FPS (1536 spf)
Compression mode            : Lossy
Stream size                 : 510 MiB (9%)
Title                       : Original, 5.1 640 Kbps
Language                    : English
Default                     : No
Forced                      : No

Text #1
ID                          : 4
Format                      : UTF-8
Codec ID                    : S_TEXT/UTF8
Codec ID/Info               : UTF-8 Plain Text
Duration                    : 1 h 42 min
Bit rate                    : 63 b/s
Count of elements           : 1616
Stream size                 : 47.6 KiB (0%)
Title                       : English
Language                    : English
Default                     : No
Forced                      : No

Text #2
ID                          : 5
Format                      : UTF-8
Codec ID                    : S_TEXT/UTF8
Codec ID/Info               : UTF-8 Plain Text
Duration                    : 1 h 47 min
Bit rate                    : 70 b/s
Count of elements           : 1823
Stream size                 : 55.4 KiB (0%)
Title                       : English (SDH)
Language                    : English
Default                     : No
Forced                      : No

Menu
00:00:00.000                : :Chapter 01
00:14:36.208                : :Chapter 02
00:26:57.907                : :Chapter 03
00:43:09.503                : :Chapter 04
01:05:54.408                : :Chapter 05
01:17:26.390                : :Chapter 06
01:31:39.952                : :Chapter 07
01:44:27.010                : :Chapter 08

Код:
raw [info]: 1280x536p 1:1 @ 24000/1001 fps (cfr)
[info]: using SAR=1/1
[info]: using cpu capabilities: MMX2 SSE2Fast SSSE3 SSE4.2 AVX XOP FMA4 LZCNT
[info]: profile High, level 4.1
[info]: frame I:1076  Avg QP:12.88  size:124569
[info]: frame P:29836 Avg QP:14.05  size: 49990
[info]: frame B:129226 Avg QP:14.76  size: 27174
[info]: consecutive B-frames:  1.1%  0.8%  4.1% 10.7% 13.7% 56.1%  6.5%  1.3%  1.6%  1.5%  2.7%
[info]: mb I  I16..4:  7.3% 79.0% 13.7%
[info]: mb P  I16..4:  0.3% 14.4%  0.9%  P16..4: 28.2% 27.1% 21.1%  0.9%  0.3%    skip: 6.7%
[info]: mb B  I16..4:  0.0%  2.9%  0.1%  B16..8: 32.8% 21.1%  9.2%  direct: 9.9%  skip:24.1%  L0:48.0% L1:37.8% BI:14.2%
[info]: 8x8 transform intra:92.3% inter:49.4%
[info]: direct mvs  spatial:99.9% temporal:0.1%
[info]: coded y,uvDC,uvAC intra: 97.2% 89.5% 80.6% inter: 49.0% 30.3% 10.4%
[info]: i16 v,h,dc,p: 51%  9% 13% 27%
[info]: i8 v,h,dc,ddl,ddr,vr,hd,vl,hu: 13%  8% 17%  9% 11% 11% 10% 10% 11%
[info]: i4 v,h,dc,ddl,ddr,vr,hd,vl,hu: 14%  7%  4%  9% 15% 14% 13% 11% 11%
[info]: i8c dc,h,v,p: 54% 18% 16% 13%
[info]: Weighted P-Frames: Y:4.9% UV:2.9%
[info]: ref P L0: 40.7%  8.3% 20.0%  8.8%  7.9%  5.4%  5.5%  3.2%  0.1%  0.0%
[info]: ref B L0: 63.9% 15.1%  8.7%  5.2%  4.0%  2.3%  0.8%
[info]: ref B L1: 92.1%  7.9%
[info]: kb/s:6153.03
encoded 160138 frames, 11.40 fps, 6153.03 kb/s, duration 3:54:07.78
Оригінал <----------> Ріп







Підтримати купівлю інших фільмів можна тут



Джерело: &
Подяка AngryBirdsUA та Hanway'ю за український звук

ЗАЛИШАЙТЕСЬ ЯКОМОГА ДОВШЕ НА РОЗДАЧІ
ЗАВАНТАЖИВ САМ - ДАЙ ЗАВАНТАЖИТИ ІНШИМ!


 Трекер:    Зареєстрований   

Завантажити / скачати фільм українською



відео для новачків



 Зареєстрований:   2016-11-25 11:51
 Розмір:   5.43 GB 
 Оцінка фільму:   4/10 (Голосів: 15)
   
Інші релізи
   Життя / Life (2015) AngryBirdsUA  21 / 1   1.45 GB   2016-05-28 14:46 
   Життя / Life (2015) AVC Gelios  8 / 0   1.79 GB   2016-05-28 14:46 
bot 
робот


З нами з: 30.09.07
Востаннє: 26.05.05
Повідомлень: 15982

2016-11-25 11:51  
Тему перенесено з Анонси релізів до форуму Фільми в HD


igor911

Ваш часовий пояс: GMT + 2 Години

Нова тема   Відповісти