Завантажити та скачати торренти українською


Скрипка Олег | Дискографія [2 альбоми, 1 Live] (2001-2009) [FLAC] | Folk Rock

Нові коментарі

Нова тема   Відповісти
Останній раз роздавалося Vav+ (2016-10-06)
Автор Повідомлення
plyrvt 
VIP


З нами з: 03.12.08
Востаннє: 01.12.16
Повідомлень: 398

2009-10-07 12:54  
Скрипка Олег | Дискографія [2 альбоми, 1 Live] (2001-2009) [FLAC] | Folk Rock



Стиль: Folk Rock
Країна, місто: Україна, Київ
Сайти: Офіційний сайт

Альбоми:
2001 - Олег Скрипка & Ігор Бутман - Концерт для Скрипки і Біг-Бенда


01 - Intro - 1:07
02 - Fever - 4:08
03 - Dance with me - 3:51
04 - Fly me to the moon - 3:16
05 - Besame Mucho - 5:13
06 - Я в весеннем лесу - 2:55
07 - Я підійду - 2:11
08 - Політрок - 2:07
09 - Червоні коні - 2:02
10 - Ты ушел - 2:46
11 - Я прошу... - 2:50
12 - Інколи - 3:00
13 - Галю приходь - 2:01
14 - Їхали козаки - 2:46
15 - На вулиці скрипка грає - 1:29
16 - Ти ж мене підманула - 1:28
17 - То було не ходити... - 1:32
18 - Qui sas - 3:27
19 - Подмосковные вечера - 4:13
20 - Ромашки спрятались - 4:06
21 - Постой, паровоз... - 5:55
22 - Шумел камыш - 4:19

Тривалість: 01:06:41
Видавець: бутлег з режисерського пульта
Мова: англійська (02-04), українська (07-09, 12-17), російська (01, 06, 10-11, 19-22, іспанська (05, 18)
EAC Log
Exact Audio Copy V0.99 prebeta 4 from 23. January 2008

Отчёт EAC об извлечении, выполненном 14. января 2010, 2:25

Олег Скрипка feat. оркестр Игоря Бутмана / Концерт в клубе "Роддом", г. Харьков

Дисковод: PIONEER DVD-RW DVR-212 Adapter: 7 ID: 0

Режим чтения : Достоверность
Использование точного потока : Да
Отключение кэша аудио : Да
Использование указателей C2 : Нет

Коррекция смещения при чтении : 48
Способность читать области Lead-in и Lead-out : Нет
Заполнение пропущенных сэмплов тишиной : Да
Удаление блоков с тишиной в начале и конце : Нет
При вычислениях CRC использовались нулевые сэмплы : Да
Интерфейс : Установленный внешний ASPI-интерфейс

Выходной формат : Внутренние WAV-операции
Формат сэмплов : 44.100 Гц; 16 бит; стерео

TOC извлечённого CD

Трек | Старт | Длительность | Начальный сектор | Конечный сектор
---------------------------------------------------------------------
1 | 0:00.00 | 1:06.58 | 0 | 5007
2 | 1:06.58 | 4:08.05 | 5008 | 23612
3 | 5:14.63 | 3:50.55 | 23613 | 40917
4 | 9:05.43 | 3:15.64 | 40918 | 55606
5 | 12:21.32 | 5:13.23 | 55607 | 79104
6 | 17:34.55 | 2:54.45 | 79105 | 92199
7 | 20:29.25 | 2:10.48 | 92200 | 101997
8 | 22:39.73 | 2:06.63 | 101998 | 111510
9 | 24:46.61 | 2:02.11 | 111511 | 120671
10 | 26:48.72 | 2:45.51 | 120672 | 133097
11 | 29:34.48 | 2:50.22 | 133098 | 145869
12 | 32:24.70 | 3:00.15 | 145870 | 159384
13 | 35:25.10 | 2:00.72 | 159385 | 168456
14 | 37:26.07 | 2:46.36 | 168457 | 180942
15 | 40:12.43 | 1:29.13 | 180943 | 187630
16 | 41:41.56 | 1:27.54 | 187631 | 194209
17 | 43:09.35 | 1:31.54 | 194210 | 201088
18 | 44:41.14 | 3:26.58 | 201089 | 216596
19 | 48:07.72 | 4:13.28 | 216597 | 235599
20 | 52:21.25 | 4:05.59 | 235600 | 254033
21 | 56:27.09 | 5:54.45 | 254034 | 280628
22 | 62:21.54 | 4:18.70 | 280629 | 300048

Характеристики диапазона извлечения и сообщения об ошибках

Выбранный диапазон

Имя файла B:\MP 3\Воплi Вiдоплясова (FLAC)\Олег Скрипка\2001 Олег Скрипка feat. оркестр Игоря Бутмана - Концерт в клубе Роддом, г. Харьков (15 декабря 2001)\Олег Скрипка feat. оркестр Игоря Бутмана - Концерт в клубе Роддом , г. Харьков.wav

Пиковый уровень 100.0 %
Качество диапазона 100.0 %
CRC теста C97FBF9C
CRC копии C97FBF9C
Копирование... OK

Ошибок не произошло

AccurateRip: сводка

Трек 1 нет в базе данных
Трек 2 нет в базе данных
Трек 3 нет в базе данных
Трек 4 нет в базе данных
Трек 5 нет в базе данных
Трек 6 нет в базе данных
Трек 7 нет в базе данных
Трек 8 нет в базе данных
Трек 9 нет в базе данных
Трек 10 нет в базе данных
Трек 11 нет в базе данных
Трек 12 нет в базе данных
Трек 13 нет в базе данных
Трек 14 нет в базе данных
Трек 15 нет в базе данных
Трек 16 нет в базе данных
Трек 17 нет в базе данных
Трек 18 нет в базе данных
Трек 19 нет в базе данных
Трек 20 нет в базе данных
Трек 21 нет в базе данных
Трек 22 нет в базе данных

Ни одного трека нет в базе AccurateRip

Конец отчёта
Audiochecker Log
AUDIOCHECKER v2.0 beta (build 457) - by Dester - [email protected]
~~~~~~~~~~~~~~~~~~~~~~~~~~~~~~~~~~
-=== DO NOT EDIT THIS FILE! ===-

Path: ...\2001 - Концерт в клубе 'Роддом', г. Харьков

01 -=- 01 - Intro.wav -=- CDDA (99%)
02 -=- 02 - Fever.wav -=- CDDA (86%)
03 -=- 03 - Dance with me.wav -=- CDDA (100%)
04 -=- 04 - Fly me to the moon.wav -=- CDDA (76%)
05 -=- 05 - Besame Mucho.wav -=- MPEG (73%)
06 -=- 06 - Я в весеннем лесу.wav -=- CDDA (100%)
07 -=- 07 - Я підійду.wav -=- CDDA (100%)
08 -=- 08 - Політрок.wav -=- CDDA (100%)
09 -=- 09 - Червоні коні.wav -=- CDDA (100%)
10 -=- 10 - Ты ушел.wav -=- CDDA (100%)
11 -=- 11 - Я прошу.wav -=- CDDA (100%)
12 -=- 12 - Інколи.wav -=- CDDA (100%)
13 -=- 13 - Галю приходь.wav -=- CDDA (58%)
14 -=- 14 - Їхали козаки.wav -=- CDDA (85%)
15 -=- 15 - На вулиці скрипка грає.wav -=- CDDA (100%)
16 -=- 16 - Ти ж мене підманула.wav -=- CDDA (100%)
17 -=- 17 - То було не ходити.wav -=- CDDA (87%)
18 -=- 18 - Qui sas.wav -=- CDDA (100%)
19 -=- 19 - Подмосковные вечера.wav -=- CDDA (58%)
20 -=- 20 - Ромашки спрятались.wav -=- CDDA (86%)
21 -=- 21 - Постой, паровоз.wav -=- CDDA (87%)
22 -=- 22 - Шумел камыш.wav -=- CDDA (99%)

Summary 88,55% CDDA

148507860
2004 - Відрада



01 - Відрада (суфійська імпровізація) - 3:28
02 - Tombe la neige (французько-циганський романс) - 2:57
03 - Не пробуждай воспоминанья (російський романс) - 5:23
04 - Fever (пам'яті Елвіса Преслі) - 3:19
05 - Rien de rien (французький регей) - 3:20
06 - Осінь (буддійсько-ностальгічна) - 3:34
07 - It's now or never (італійсько-американська пісня) - 4:33
08 - Ромашки спрятались (радянський блюз) - 4:04
09 - Qui sas (іспанська народна) - 3:21
10 - Не питай (український романс) - 3:38
11 - Ой, та хто горя не знає (карпатська танцювальна) - 3:06

Тривалість: 00:40:43
Мова: українська (01, 06, 10, 11), російська (03, 08), іспанська (09), англійська (04, 07), французька (02, 05)
Видавець: Lavina Music 2004
EAC Log
Отчёт EAC об извлечении, выполненном 30. октября 2007, 12:54 для диска:
Олег Скрипка / Відрада

Дисковод: HL-DT-STDVD-ROM GDR8164B Adapter: 0 ID: 0
Режим чтения: Достоверный (C2: нет, Точный поток: да, Отключение кэша: да)
Комбинированное смещение чтения/записи: 0
Способность читать области Lead-in и Lead-out : Нет

Выходной формат: Внутренние WAV-операции
44.100 Гц; 16 бит; стерео

Другие параметры:
Заполнение пропущенных сэмплов тишиной : Да
Удаление блоков с тишиной в начале и конце : Нет
Встроенный Win32-интерфейс для Win NT/2000

Характеристики диапазона извлечения и сообщения об ошибках
Выбранный диапазон
Имя файла C:\The Classics of Vopli Vidopliassova\Олег Скрипка - Відрада (2004)\Олег Скрипка - Відрада (2004).wav

Пиковый уровень 100.0 %
Качество диапазона 99.9 %
CRC B3E56670
Копирование... OK

Ошибок не произошло

Конец отчёта
Audiochecker Log
AUDIOCHECKER v2.0 beta (build 457) - by Dester - [email protected]
~~~~~~~~~~~~~~~~~~~~~~~~~~~~~~~~~~
-=== НЕ РЕДАКТИРУЙТЕ ЭТОТ ФАЙЛ! ===-

Путь: ...\2004 - Відрада

001 -=- 01 - Відрада (суфійська імпровізація).wav -=- CDDA (85%)
002 -=- 02 - Tombe la neige (французько-циганський романс).wav -=- CDDA (100%)
003 -=- 03 - Не пробуждай воспоминанья (російський романс).wav -=- CDDA (100%)
004 -=- 04 - Fever (пам'яті Елвіса Преслі).wav -=- CDDA (100%)
005 -=- 05 - Rien de rien (французький регей).wav -=- CDDA (100%)
006 -=- 06 - Осінь (буддійсько-ностальгічна).wav -=- CDDA (100%)
007 -=- 07 - It's now or never (італійсько-американська пісня).wav -=- CDDA (100%)
008 -=- 08 - Ромашки спрятались (радянський блюз).wav -=- CDDA (100%)
009 -=- 09 - Qui sas (іспанська народна).wav -=- CDDA (100%)
010 -=- 10 - Не питай (український романс).wav -=- CDDA (100%)
011 -=- 11 - Ой, та хто горя не знає (карпатська танцювальна).wav -=- CDDA (100%)

Сводка 98,64% CDDA

115898388
2009 - Серце у мене вразливе...


01 - Як почуеш - 3:01
02 - Карії очі - 2:41
03 - І знову осінь - 3:07
04 - Берізка - 2:45
05 - Параска - 2:24
06 - Велике місто - 2:24

Тривалість: 00:16:22
Видавець: Країна мрій
Мова: українська
EAC Log
Exact Audio Copy V0.99 prebeta 5 from 4. May 2009

EAC extraction logfile from 21. December 2009, 20:27

Олег Скрипка / Серце у мене вразливе...

Used drive : HL-DT-STDVDRAM GSA-H10N Adapter: 1 ID: 0

Read mode : Secure
Utilize accurate stream : Yes
Defeat audio cache : Yes
Make use of C2 pointers : No

Read offset correction : 667
Overread into Lead-In and Lead-Out : No
Fill up missing offset samples with silence : Yes
Delete leading and trailing silent blocks : No
Null samples used in CRC calculations : Yes
Used interface : Native Win32 interface for Win NT & 2000

Used output format : User Defined Encoder
Selected bitrate : 192 kBit/s
Quality : High
Add ID3 tag : No
Command line compressor : ..\wavpack-4.60\wavpack.exe
Additional command line options : -h %s %d

TOC of the extracted CD

Track | Start | Length | Start sector | End sector
---------------------------------------------------------
1 | 0:00.01 | 3:01.19 | 1 | 13594
2 | 3:01.20 | 2:40.64 | 13595 | 25658
3 | 5:42.09 | 3:07.37 | 25659 | 39720
4 | 8:49.46 | 2:44.72 | 39721 | 52092
5 | 11:34.43 | 2:23.72 | 52093 | 62889
6 | 13:58.40 | 2:23.65 | 62890 | 73679

Range status and errors

Selected range

Filename ..\Олег Скрипка - Серце у мене вразливе....wav

Peak level 96.6 %
Range quality 100.0 %
Test CRC E48E8578
Copy CRC E48E8578
Copy OK

No errors occurred

End of status report
Audiochecker Log
AUDIOCHECKER v2.0 beta (build 457) - by Dester - [email protected]
~~~~~~~~~~~~~~~~~~~~~~~~~~~~~~~~~~
-=== DO NOT EDIT THIS FILE! ===-

Path: ...\2009 - Серце у мене вразливе

1 -=- 01 - Як почуеш.wav -=- CDDA (100%)
2 -=- 02 - Карії очі.wav -=- CDDA (100%)
3 -=- 03 - І знову осінь.wav -=- CDDA (100%)
4 -=- 04 - Берізка.wav -=- CDDA (99%)
5 -=- 05 - Параска.wav -=- CDDA (100%)
6 -=- 06 - Велике місто.wav -=- CDDA (100%)

Summary 99,83% CDDA

200773092
Тривалість: 02:03:46

Аудіо-кодек: FLAC
Ріп: image+ Embedded CUE/EAC/audiochecker/cover)
EAC: Secure + Accurate stream + disable cache/C2 (Read offset correction не виставлений в альбомі "2004 - Відрада")
Бітрейт: lossless (~807-948 кбіт/сек)

Воплі Відоплясова | Колекція [7 альбомів, 4 збірки, 1 Live, 1 Maxi] (1991-2009) [FLAC] | Folk Rock
Рогачевський Євген - Иіцкій аун (2006) [FLAC] | Folk Rock
VA - Олег Скрипка - Презентує Пісні Барикад (2005) [FLAC] | Folk / Bard


Срібний реліз (на рейтинг впливає 50% завантаженого)
 Трекер:    Зареєстрований   

Завантажити / скачати українську музику



відео для новачків



 Зареєстрований:   2010-03-02 19:05
 Розмір:   843 MB 
 Оцінка музики:   9.8/10 (Голосів: 11)
   
kuzzya 
Новенький


З нами з: 31.01.10
Востаннє: 21.10.16
Повідомлень: 3

2010-01-31 03:45  
Як від'єднати файли CUE та LOG ?
Чому Audiochecker.Log потрековий, а файл один?

jinotot 
Почесний оцифрувальник літератури


З нами з: 28.01.09
Востаннє: 16.11.16
Повідомлень: 3235

2010-01-31 09:47  
kuzzya, CUE там вбудований, його не треба від'єднувати. А якщо треба окремі треки, то слід взяти й руцями розрізати Wink (2)
Як це зробити -- пише в оцих темах: Wav, APE, FLAC образ + cue (отримання треків) та Аудіо в форматах Lossless - інструкція користування.

plyrvt 
VIP


З нами з: 03.12.08
Востаннє: 01.12.16
Повідомлень: 398

2010-01-31 11:38  
Цитата:
Як від'єднати файли CUE та LOG ?

foobar2000 натиснути E та Alt+3 відповідно

Цитата:
Чому Audiochecker.Log потрековий, а файл один?

тому що вважаю недоцільним робити аудіочекер файлу образа - неможливо визначити які треки мають проблеми зі спектром, а які повноцінні

plyrvt 
VIP


З нами з: 03.12.08
Востаннє: 01.12.16
Повідомлень: 398

2010-02-28 04:33  
Прохання до сідерів перекачати в зв'язку з оновленням
ssTAss 
Модератор музики


З нами з: 05.07.08
Востаннє: 03.12.16
Повідомлень: 10930

2010-03-01 16:35  
plyrvt написано:
2005 - Пісні помаранчевого повстання

питання - що має цей альбом до офіційної дискографії Скрипки, окрім як "Олег Скрипка презентує"??
оу, ще дві пісні там виконує... доречніше б було його помістити в окремий реліз (VA), а тут дати посилання...
що скажуть інші модератори?

jinotot 
Почесний оцифрувальник літератури


З нами з: 28.01.09
Востаннє: 16.11.16
Повідомлень: 3235

2010-03-01 20:22  
Офіційний сайт у розділі "Музіка >> Сольні роботи" мовчить про таку збірку. Тож, напевно, варто зробити окремий реліз і зробити взаємні лінки...
plyrvt 
VIP


З нами з: 03.12.08
Востаннє: 01.12.16
Повідомлень: 398

2010-03-01 22:24  
ну ви порадьтесь і прийміть якесь рішення
Tarasyk 
Відео Гуртом - фільмокрай
Відео Гуртом - фільмокрай


З нами з: 26.08.09
Востаннє: 28.11.16
Повідомлень: 5972

2010-03-02 16:49  
jinotot написано:
варто зробити окремий реліз і зробити взаємні лінки...

Підтримую

nam 
Новенький


З нами з: 30.07.10
Востаннє: 16.10.12
Повідомлень: 8

2010-10-03 15:27  
"Концерт для Скрипки і Біг-Бенда" хіба не 2010 року?
plyrvt 
VIP


З нами з: 03.12.08
Востаннє: 01.12.16
Повідомлень: 398

2010-10-03 15:42  
nam 15.12.2001 в клубі "Роддом", м. Харків
nam 
Новенький


З нами з: 30.07.10
Востаннє: 16.10.12
Повідомлень: 8

2010-10-03 22:27  
plyrvt
Тоді було зроблено запис, власне бутлег побачив світ 2010 року. Принаймні на офіційній сторінці ВВ зазначено такий рік, хоча з дещо скороченим трек-змістом.

plyrvt 
VIP


З нами з: 03.12.08
Востаннє: 01.12.16
Повідомлень: 398

2010-10-03 22:45  
В 2010 році бутлег був офіційно виданий "Країна мрій" як на CD так і урізаний веб-реліз в MP3
До 2010 року бутлег був неофіційним, я його скачав з торентс.ру в 2007 році, куди він попав з e2k

nam 
Новенький


З нами з: 30.07.10
Востаннє: 16.10.12
Повідомлень: 8

2010-10-04 21:19  
Зрозумів, дякую.
smkysil 
Частий відвідувач


З нами з: 30.01.09
Востаннє: 20.11.16
Повідомлень: 29

2012-05-28 13:05  
Пропоную цього "Свідка Покращення" перенести до розділу "Поп-музика".
Ваш часовий пояс: GMT + 2 Години

Нова тема   Відповісти