Завантажити та скачати торренти українською


Зливай нечисть / Freaks of Nature (2015) AVC Eng | Sub Ukr/Eng

Нові коментарі

Нова тема   Відповісти
Автор Повідомлення
Anonymous 







2016-11-24 18:11  
Зливай нечисть / Freaks of Nature (2015) AVC Eng | Sub Ukr/Eng



Жанр: жахи, комедія, сай -фай
Країна: США



Кінокомпанія: Columbia Pictures, Sony Pictures Entertainment (SPE)
Режисер: Роббі Пікерінг
Актори: Деніс Лірі, Ванесса Енн Хадженс, Черіна Вінсент, Йєн Робертс, Боб Оденкірк, Паттон Освальт, Джош Фадем, Макензі Девіс, Кіган-Майкл Кі, Кріс Зілка, Ніколас Браун, Уткарш Амбудкар, Мае Вітмен, Пет Хілі, Рачал Гарріс, Джоан Кузак, Ісаак Ліпштадт, Ед Вествік

Сюжет:
Коли прибульці нападають на Землю, підліток Даг опиняється в будинку разом з гарячою вампіршей Петрою і зомбі на ім'я Нед. Щоб вижити, вони повинні співпрацювати. Проблема в тому, що є суттєва перешкода - особливий апетит Петри і Неда


Тривалість: 01:32:35
Якість:
Відео:
кодек:
розмір кадру: 1056 х 440
бітрейт: 2481 кб/с

Аудіо:
мова: англійська
переклад: оригінал
кодек: 5.1
бітрейт: 448 кб/с

Субтитри:
мова: українська
тип: програмні (м'які)
формат: *.srt

Субтитри:
мова: англійська
тип: програмні (м'які)
формат: *.srt
MediaInfo
General
Unique ID : 172480577712807931280339188666295819989 (0x81C28D0AAE5C8EC4A2A24E593AA69ED5)
Complete name : E:\Freaks of Nature.(2015) - AVC.mkv
Format : Matroska
Format version : Version 4 / Version 2
File size : 1.90 GiB
Duration : 1h 32mn
Overall bit rate : 2 931 Kbps
Movie name : Freaks of Nature (2015)
Encoded date : UTC 2016-11-16 10:35:55
Writing application : mkvmerge v8.8.0 ('Wind at my back') 64bit
Writing library : libebml v1.3.3 + libmatroska v1.4.4
DURATION : 01:31:30.193000000
NUMBER_OF_FRAMES : 1404
NUMBER_OF_BYTES : 50878
_STATISTICS_WRITING_APP : mkvmerge v8.8.0 ('Wind at my back') 64bit
_STATISTICS_WRITING_DATE_UTC : 2016-11-16 10:35:55
_STATISTICS_TAGS : BPS DURATION NUMBER_OF_FRAMES NUMBER_OF_BYTES

Video
ID : 1
Format : AVC
Format/Info : Advanced Video Codec
Format profile : [email protected]
Format settings, CABAC : Yes
Format settings, ReFrames : 10 frames
Codec ID : V_MPEG4/ISO/AVC
Duration : 1h 32mn
Bit rate : 2 481 Kbps
Width : 1 056 pixels
Height : 440 pixels
Display aspect ratio : 2.40:1
Frame rate mode : Constant
Frame rate : 23.976 fps
Color space : YUV
Chroma subsampling : 4:2:0
Bit depth : 8 bits
Scan type : Progressive
Bits/(Pixel*Frame) : 0.223
Stream size : 1.57 GiB (83%)
Title : potroks
Writing library : core 148 r2665M a01e339
Encoding settings : cabac=1 / ref=10 / deblock=1:-2:-2 / analyse=0x3:0x133 / me=umh / subme=11 / psy=1 / psy_rd=1.05:0.10 / mixed_ref=1 / me_range=48 / chroma_me=1 / trellis=2 / 8x8dct=1 / cqm=0 / deadzone=21,11 / fast_pskip=0 / chroma_qp_offset=-3 / threads=9 / lookahead_threads=2 / sliced_threads=0 / nr=0 / decimate=1 / interlaced=0 / bluray_compat=0 / constrained_intra=0 / bframes=11 / b_pyramid=2 / b_adapt=2 / b_bias=0 / direct=3 / weightb=1 / open_gop=0 / weightp=2 / keyint=240 / keyint_min=23 / scenecut=40 / intra_refresh=0 / rc=2pass / mbtree=0 / bitrate=2481 / ratetol=1.0 / qcomp=0.70 / qpmin=0 / qpmax=69 / qpstep=4 / cplxblur=20.0 / qblur=0.5 / ip_ratio=1.40 / pb_ratio=1.30 / aq=1:0.80
Language : English
Default : Yes
Forced : No
DURATION : 01:32:35.342000000
NUMBER_OF_FRAMES : 133195
NUMBER_OF_BYTES : 1722745233
_STATISTICS_WRITING_APP : mkvmerge v8.8.0 ('Wind at my back') 64bit
_STATISTICS_WRITING_DATE_UTC : 2016-11-16 10:35:55
_STATISTICS_TAGS : BPS DURATION NUMBER_OF_FRAMES NUMBER_OF_BYTES

Audio
ID : 2
Format : AC-3
Format/Info : Audio Coding 3
Mode extension : CM (complete main)
Format settings, Endianness : Big
Codec ID : A_AC3
Duration : 1h 32mn
Bit rate mode : Constant
Bit rate : 448 Kbps
Channel(s) : 6 channels
Channel positions : Front: L C R, Side: L R, LFE
Sampling rate : 48.0 KHz
Bit depth : 16 bits
Compression mode : Lossy
Stream size : 297 MiB (15%)
Title : Original | DD 5.1 @ 448 kbps
Language : English
Default : No
Forced : No

Text #1
ID : 3
Format : UTF-8
Codec ID : S_TEXT/UTF8
Codec ID/Info : UTF-8 Plain Text
Title : iTunes
Language : Ukrainian
Default : Yes
Forced : No

Text #2
ID : 4
Format : UTF-8
Codec ID : S_TEXT/UTF8
Codec ID/Info : UTF-8 Plain Text
Title : Full
Language : English
Default : No
Forced : No

Menu
00:00:00.000 : :(01)00:00:00:000
00:02:47.917 : :(02)00:02:47:917
00:08:05.192 : :(03)00:08:05:192
00:16:22.898 : :(04)00:16:22:898
00:20:46.411 : :(05)00:20:46:411
00:26:36.885 : :(06)00:26:36:885
00:30:45.468 : :(07)00:30:45:468
00:34:58.137 : :(08)00:34:58:137
00:42:08.858 : :(09)00:42:08:858
00:48:36.914 : :(10)00:48:36:914
00:53:13.148 : :(11)00:53:13:148
00:58:32.132 : :(12)00:58:32:132
01:04:02.295 : :(13)01:04:02:295
01:08:30.395 : :(14)01:08:30:396
01:16:03.390 : :(15)01:16:03:390
01:23:48.273 : :(16)01:23:48:273
Скріншоти



Особиста оцінка: 0 - не дивився


 Трекер:    Зареєстрований   

Завантажити / скачати фільм українською



відео для новачків



 Зареєстрований:   2016-11-24 18:11
 Розмір:   1.9 GB 
 Оцінка фільму:   7/10 (Голосів: 1)
   
bot 
робот


З нами з: 30.09.07
Востаннє: 26.05.05
Повідомлень: 15973

2016-11-24 18:21  
Тему перенесено з Фільми в HD до форуму Фільми


11FrYkT

11FrYkT 
Модератор відео


З нами з: 20.02.11
Востаннє: 03.12.16
Повідомлень: 3065

2016-11-24 18:23  
leicheman , зробіть декілька скріншотів з субтитрами
Anonymous 







2016-11-24 18:27  
11FrYkT
та вони ж не жорсткі
за правилами не потрібно, якщо вони м"які

11FrYkT 
Модератор відео


З нами з: 20.02.11
Востаннє: 03.12.16
Повідомлень: 3065

2016-11-24 18:45  
leicheman , знаю, але так як тут озвученням виступають субтитри то я думаю зайвим не буде
Ваш часовий пояс: GMT + 2 Години

Нова тема   Відповісти