Завантажити та скачати торренти українською


Коппеліон / Coppelion (1 сезон) (2013) 720р Ukr/Jap | Sub Ukr

Нові коментарі

Нова тема   Відповісти
Автор Повідомлення
NeetScrool 
Відео Гуртом - фільмокрай
Відео Гуртом - фільмокрай


З нами з: 10.01.13
Востаннє: 17.01.17
Повідомлень: 2297

2016-11-23 21:34  
Коппеліон / Coppelion (1 сезон) (2013) 720р Ukr/Jap | Sub Ukr

Коппеліон / Coppelion (1 сезон) (2013) 720р Ukr/Jap | Sub Ukr


Жанр: пригоди, постапокаліптика
Країна: Японія



5.69 (1123 голосів)

Кінокомпанія: GoHands
Режисер: Сузукі Шінґо
Ролі озвучують: Ханазава Кана, Томацу Харука, Акесака Сатомі та ін.

Сюжет:
Події розгортаються в 2016 році, у Токіо, після ядерного вибуху, що знищив майже все місто. Коппеліон - це останній експеримент, на меті якого є виведення у людей імунітету до радіації. І от, із заповненого радіацією міста надходить невідомий сигнал, і для того, щоб дізнатися подробиці, туди направляються три дівчинки із загону Коппеліон.


Тривалість: 1 серія: 24:19 (цілком серій: 13)
Перелік серій
Епізод 1 - Коппеліон
Епізод 2 - Майбутнє
Епізод 3 - Надія
Епізод 4 - Захід сонця
Епізод 5 - Життя
Епізод 6 - Планета
Епізод 7 - Харуто
Епізод 8 - Сестри
Епізод 9 - Диверсія
Епізод 10 - Людина
Епізод 11 - Пробудження
Епізод 12 - Обіцянка
Епізод 13 - Янгол
Якість:
Відео:
кодек:
розмір кадру: 1280 х 720
бітрейт: ~4500 кб/с

Аудіо # 1:
мова: українська
переклад: двоголосий закадровий
кодек: 2.0
бітрейт: 192 кб/с

Аудіо # 2:
мова: японська
переклад: оригінал
кодек: OGG
бітрейт: 256 кб/с

Джерело озвучення:


Субтитри:
мова: українська (написи/повні у контейнері та повні в окремій папці)
тип: програмні (м'які)
формат: *.ass
MediaInfo
General
Unique ID : 183948301036784498078209941870252398578 (0x8A63277450E02308B0EAC4DFCB9817F2)
Complete name : E:\Довготривлі роздачі\Coppelion [] [720p]\Coppelion 08 [] [720p].mkv
Format : Matroska
Format version : Version 4 / Version 2
File size : 958 MiB
Duration : 23 min 42 s
Overall bit rate mode : Variable
Overall bit rate : 5 652 kb/s
Movie name : Coppelion - 08: Sisters | Коппеліон - 08: Сестри
Encoded date : UTC 2014-04-21 15:55:23
Writing application : mkvmerge v6.8.0 ('Theme for Great Cities') 64bit built on Mar 2 2014 21:34:26
Writing library : libebml v1.3.0 + libmatroska v1.4.1
Attachments : poster_coppelion.jpg / calibri.ttf / cambria.ttc / sylfaen.ttf / verdanab.ttf / 7fonts.ru_Days.ttf / 7fonts.ru_Days_0.ttf / batang.ttc / BKANT.TTF / BOOKOSB.TTF / BOOKOSBI.TTF

Video
ID : 1
Format : AVC
Format/Info : Advanced Video Codec
Format profile : High [email protected]
Format settings, CABAC : Yes
Format settings, ReFrames : 9 frames
Codec ID : V_MPEG4/ISO/AVC
Duration : 23 min 42 s
Bit rate : 5 092 kb/s
Width : 1 280 pixels
Height : 720 pixels
Display aspect ratio : 16:9
Frame rate mode : Constant
Frame rate : 23.976 (24000/1001) FPS
Color space : YUV
Chroma subsampling : 4:2:0
Bit depth : 10 bits
Scan type : Progressive
Bits/(Pixel*Frame) : 0.230
Stream size : 863 MiB (90%)
Title : by Winter
Writing library : core 132 r2309 3b1f1f7
Encoding settings : cabac=1 / ref=9 / deblock=1:-2:-2 / analyse=0x3:0x133 / me=umh / subme=9 / psy=1 / psy_rd=0.90:0.00 / mixed_ref=1 / me_range=24 / chroma_me=1 / trellis=2 / 8x8dct=1 / cqm=0 / deadzone=21,11 / fast_pskip=1 / chroma_qp_offset=-2 / threads=12 / lookahead_threads=2 / sliced_threads=0 / nr=0 / decimate=0 / interlaced=0 / bluray_compat=0 / constrained_intra=0 / bframes=8 / b_pyramid=2 / b_adapt=2 / b_bias=0 / direct=1 / weightb=1 / open_gop=0 / weightp=2 / keyint=250 / keyint_min=23 / scenecut=40 / intra_refresh=0 / rc=crf / mbtree=0 / crf=17.0 / qcomp=0.70 / qpmin=9 / qpmax=40 / qpstep=4 / ip_ratio=1.40 / pb_ratio=1.30 / aq=1:0.90
Language : Japanese
Default : No
Forced : No

Audio #1
ID : 2
Format : AC-3
Format/Info : Audio Coding 3
Mode extension : CM (complete main)
Format settings, Endianness : Big
Codec ID : A_AC3
Duration : 23 min 42 s
Bit rate mode : Constant
Bit rate : 192 kb/s
Channel(s) : 2 channels
Channel positions : Front: L R
Sampling rate : 48.0 kHz
Frame rate : 31.250 FPS (1536 spf)
Bit depth : 16 bits
Compression mode : Lossy
Stream size : 32.6 MiB (3%)
Title : Двоголосий закадровий (Gwean & Maslinka)
Language : Ukrainian
Default : No
Forced : No

Audio #2
ID : 3
Format : Vorbis
Format settings, Floor : 1
Codec ID : A_VORBIS
Duration : 23 min 42 s
Bit rate mode : Variable
Bit rate : 256 kb/s
Channel(s) : 2 channels
Sampling rate : 48.0 kHz
Detected bit depth : 16 bits
Compression mode : Lossy
Stream size : 43.4 MiB (5%)
Title : Оригінал
Writing library : libVorbis (Schaufenugget) (20101101 (Schaufenugget))
Language : Japanese
Default : No
Forced : No

Text #1
ID : 4
Format : ASS
Codec ID : S_TEXT/ASS
Codec ID/Info : Advanced Sub Station Alpha
Compression mode : Lossless
Title : Написи
Language : Ukrainian
Default : Yes
Forced : No

Text #2
ID : 5
Format : ASS
Codec ID : S_TEXT/ASS
Codec ID/Info : Advanced Sub Station Alpha
Compression mode : Lossless
Title : Повні, MetalFreak
Language : Ukrainian
Default : No
Forced : No
Скріншоти








Переклад та озвучення виконано:
Переклад: MetalFreak
Ролі озвучили: Gwean та Maslinka
Робота зі звуком: Gwean
Студія:
Постер: Лунсар
Таймінг під : Sensetivity

Джерело: Ex.ua
Особиста оцінка: 5 - позіхав


Авторський реліз (завантажувати можна без реєстрації)
 Трекер:    Зареєстрований   

Завантажити / скачати аніме українською



відео для новачків



 Зареєстрований:   2016-11-23 21:39
 Розмір:   11.27 GB 
 Оцінка аніме:   1.8/10 (Голосів: 11)
   
NeetScrool 
Відео Гуртом - фільмокрай
Відео Гуртом - фільмокрай


З нами з: 10.01.13
Востаннє: 17.01.17
Повідомлень: 2297

2016-11-23 21:40  
Переніс свій реліз з ексу
EvGaS 
Відео Гуртом - підтримка та поширення
Відео Гуртом - підтримка та поширення


З нами з: 27.02.12
Востаннє: 17.01.17
Повідомлень: 2298

2016-11-24 05:00  
Мультсеріал дурня повна, але якщо не відволікатися на сюжет (й взагалі персонажів та техніку) — тематичні пейзажі доволі гарні. Постапокаліптичні такі, постатомне місто-привид, «зона» відчуження. Чим й запам’ятовується.

Додано через 9 хвилин 31 секунду:


Додано через 2 хвилини 15 секунд:


Ну а якщо дивитись не просто на пейзажі, а намагатись його якось перетравити, то виглядає все як …коментувати довго, це просто треба побачити щоб второпати )))

Ваш часовий пояс: GMT + 2 Години

Нова тема   Відповісти