Завантажити та скачати торренти українською


Воплі Відоплясова | Дискографія [9 альбомів, 4 збірки, 1 Live, 2 Maxi, 3 CDS] (1991-2010) [FLAC] | Folk Rock

Нові коментарі

Нова тема   Відповісти
Сторінка:  1, 2  наступна
Автор Повідомлення
plyrvt 
VIP


З нами з: 03.12.08
Востаннє: 03.12.16
Повідомлень: 398

2009-10-06 23:01  
Воплі Відоплясова | Дискографія [9 альбомів, 4 збірки, 1 Live, 2 Maxi, 3 CDS]
(1991-2010) [FLAC] | Folk Rock



Стиль: Folk Rock
Країна, місто: Україна, Київ
Сайти: Офіційний сайт
Видавець: BSA Records, Країна мрій, Lavina Music
Виконавці:
Олег Скрипка
Олексій Мельченко
Сергій Сахно
Євгеній Рогачевський
Юрій Здоренко (1986-1991)
Олександр Піпа (1986-2007)
Альбоми:
1991 - Або-або


01 - Демоны (Demons) - 1:50
02 - Машина (My Car) - 2:17
03 - Я пiдiйду (I'll come up to you) - 2:33
04 - Мусса (Mussa) - 2:26
05 - Ты ушел (You've Gone) - 3:21
06 - Полонина (Polonyna) - 2:59
07 - Були деньки (There Were The Days) - 3:01
08 - Рассвет (The Dawn) - 3:24
09 - Веселковий твист (Iridescent Twist) - 2:13
10 - Оля (Olya) - 2:58
11 - Зв'язок (Тримай зi мною зв'язок) (Connection (Keep In Touch)) - 2:06
12 - Колись (Once Upon A Time) - 3:21
13 - Або-або (Either Or) - 2:33
14 - Червонi конi (Red Horses) - 2:29

Тривалість: 00:37:30
Видавець: Країна мрій 2006
Мова: укранїнська (02-03, 06-07, 09, 11-14), російська (01, 04-05, 08, 10)
EAC Log
Отчёт EAC об извлечении, выполненном 29. октября 2007, 13:32 для диска:
Вопли Видоплясова / Або-або

Дисковод: HL-DT-STDVD-ROM GDR8164B Adapter: 0 ID: 0
Режим чтения: Достоверный (C2: нет, Точный поток: да, Отключение кэша: да)
Комбинированное смещение чтения/записи: 0
Способность читать области Lead-in и Lead-out : Нет

Выходной формат: Внутренние WAV-операции
44.100 Гц; 16 бит; стерео

Другие параметры:
Заполнение пропущенных сэмплов тишиной : Да
Удаление блоков с тишиной в начале и конце : Нет
Встроенный Win32-интерфейс для Win NT/2000

Характеристики диапазона извлечения и сообщения об ошибках
Выбранный диапазон
Имя файла C:\The Classics of Vopli Vidopliassova\Вопли Видоплясова - Або-або (1991)\Вопли Видоплясова - Або-або (1991).wav

Пиковый уровень 97.7 %
Качество диапазона 100.0 %
CRC BBE54094
Копирование... OK

Ошибок не произошло

Конец отчёта
Audiochecker Log
AUDIOCHECKER v2.0 beta (build 457) - by Dester - [email protected]
~~~~~~~~~~~~~~~~~~~~~~~~~~~~~~~~~~
-=== НЕ РЕДАКТИРУЙТЕ ЭТОТ ФАЙЛ! ===-

Путь: ...\1991 - Або-або

001 -=- 01 - Демоны (Demons).wav -=- CDDA (100%)
002 -=- 02 - Машина (My Car).wav -=- CDDA (100%)
003 -=- 03 - Я пiдiйду (I'll come up to you).wav -=- CDDA (100%)
004 -=- 04 - Мусса (Mussa).wav -=- CDDA (99%)
005 -=- 05 - Ты ушел (You've Gone).wav -=- CDDA (100%)
006 -=- 06 - Полонина (Polonyna).wav -=- CDDA (100%)
007 -=- 07 - Були деньки (There Were The Days).wav -=- CDDA (100%)
008 -=- 08 - Рассвет (The Dawn).wav -=- CDDA (100%)
009 -=- 09 - Веселковий твист (Iridescent Twist).wav -=- CDDA (100%)
010 -=- 10 - Оля (Olya).wav -=- CDDA (100%)
011 -=- 11 - Зв'язок (Тримай зi мною зв'язок) (Connection (Keep In Touch)).wav -=- CDDA (99%)
012 -=- 12 - Колись (Once Upon A Time).wav -=- CDDA (100%)
013 -=- 13 - Або-або (Either Or).wav -=- CDDA (99%)
014 -=- 14 - Червонi конi (Red Horses).wav -=- CDDA (100%)

Сводка 99,79% CDDA

134322980
1994 - Країна мрій (2006)


01 - Dansez - 2:21
02 - Шалена зірка (Shalena Zirka) - 3:08
03 - Машина (Mashina) - 2:16
04 - Я підійду (Ia Pididou) - 2:17
05 - Кармен (Karmen) - 3:25
06 - Зв'язок (Zviazok) - 2:13
07 - Легенда про кохання (Legende De L'Amour) - 1:45
08 - Ліда, Ліда (Lida, Lida) - 1:17
09 - Веселковий твіст (Twist) - 1:51
10 - Галелуя (Alleluia) - 2:14
11 - Ты ушёл (T'es Parti) - 3:39
12 - Олрай (All Right) - 2:33
13 - Галю, приходь (Highway To Hell) - 2:19
14 - Танго (Tango) - 2:30
15 - Колись (Kolys) - 2:51
16 - Танці (Tantsi) - 2:24
17 - Країна мрій (Cry In A Dream) - 5:07

Тривалість: 00:44:41
Видавець: Країна мрій 2006
Мова: українська (02-10, 12-17), французька (01), російська (11)
EAC Log
Отчёт EAC об извлечении, выполненном 29. октября 2007, 14:38 для диска:
Unknown Artist / Unknown Title

Дисковод: HL-DT-STDVD-ROM GDR8164B Adapter: 0 ID: 0
Режим чтения: Достоверный (C2: нет, Точный поток: да, Отключение кэша: да)
Комбинированное смещение чтения/записи: 0
Способность читать области Lead-in и Lead-out : Нет

Выходной формат: Внутренние WAV-операции
44.100 Гц; 16 бит; стерео

Другие параметры:
Заполнение пропущенных сэмплов тишиной : Да
Удаление блоков с тишиной в начале и конце : Нет
Встроенный Win32-интерфейс для Win NT/2000

Характеристики диапазона извлечения и сообщения об ошибках
Выбранный диапазон
Имя файла C:\The Classics of Vopli Vidopliassova\Вопли Видоплясова - Країна мрій (1994)\Вопли Видоплясова - Країна мрій (1994).wav

Пиковый уровень 100.0 %
Качество диапазона 100.0 %
CRC 035F553D
Копирование... OK

Ошибок не произошло

Конец отчёта
Audiochecker Log
AUDIOCHECKER v2.0 beta (build 457) - by Dester - [email protected]
~~~~~~~~~~~~~~~~~~~~~~~~~~~~~~~~~~
-=== НЕ РЕДАКТИРУЙТЕ ЭТОТ ФАЙЛ! ===-

Путь: ...\1994 - Країна мрій

001 -=- 01 - Dansez.wav -=- CDDA (100%)
002 -=- 02 - Шалена зірка (Shalena Zirka).wav -=- CDDA (100%)
003 -=- 03 - Машина (Mashina).wav -=- CDDA (100%)
004 -=- 04 - Я підійду (Ia Pididou).wav -=- CDDA (100%)
005 -=- 05 - Кармен (Karmen).wav -=- CDDA (100%)
006 -=- 06 - Зв'язок (Zviazok).wav -=- CDDA (100%)
007 -=- 07 - Легенда про кохання (Legende De L'Amour).wav -=- CDDA (100%)
008 -=- 08 - Ліда, Ліда (Lida, Lida).wav -=- CDDA (99%)
009 -=- 09 - Веселковий твіст (Twist).wav -=- CDDA (100%)
010 -=- 10 - Галелуя (Alleluia).wav -=- CDDA (99%)
011 -=- 11 - Ты ушёл (T'es Parti).wav -=- CDDA (100%)
012 -=- 12 - Олрай (All Right).wav -=- CDDA (100%)
013 -=- 13 - Галю, приходь (Highway To Hell).wav -=- CDDA (100%)
014 -=- 14 - Танго (Tango).wav -=- CDDA (99%)
015 -=- 15 - Колись (Kolys).wav -=- CDDA (100%)
016 -=- 16 - Танці (Tantsi).wav -=- CDDA (99%)
017 -=- 17 - Країна мрій (Cry In A Dream).wav -=- CDDA (99%)

Сводка 99,71% CDDA

44560676
1994 - Країнa Мрiй


01 - Кармен - 3:36
02 - Машина - 2:14
03 - Я пiдiйду - 2:15
04 - Мусса - 2:15
05 - Ты ушел - 2:47
06 - Знову зима - 1:32
07 - Галелуя - 2:16
08 - Alright - 2:30
09 - Автострада у пекло - 2:16
10 - Танцi - 2:34
11 - Легенда о любвi - 1:43
12 - Лiда - 1:16
13 - Шалена зiрка - 2:57
14 - Танго - 2:29
15 - Веселковий твiст - 1:50
16 - Зв'язок - 2:11
17 - Колись - 2:51
18 - Країна мрiй - 5:08

Тривалість: 00:44:09
Видавець: BSA Records (Austria) 2004
Мова: українська (01-03, 06-10, 12-18), російська (04-05, 11)
EAC Log
Exact Audio Copy V0.99 prebeta 4 from 23. January 2008

Отчёт EAC об извлечении, выполненном 17. сентября 2009, 12:28

Воплi Вiдоплясова / Країнa Мрiй

Дисковод: SONY DVD RW AW-G170A Adapter: 0 ID: 0

Режим чтения : Достоверность
Использование точного потока : Да
Отключение кэша аудио : Да
Использование указателей C2 : Нет

Коррекция смещения при чтении : 48
Способность читать области Lead-in и Lead-out : Нет
Заполнение пропущенных сэмплов тишиной : Да
Удаление блоков с тишиной в начале и конце : Нет
При вычислениях CRC использовались нулевые сэмплы : Да
Интерфейс : Встроенный Win32-интерфейс для Win NT/2000

Выходной формат : Внутренние WAV-операции
Формат сэмплов : 44.100 Гц; 16 бит; стерео

TOC извлечённого CD

Трек | Старт | Длительность | Начальный сектор | Конечный сектор
---------------------------------------------------------------------
1 | 0:00.00 | 3:36.15 | 0 | 16214
2 | 3:36.15 | 2:14.02 | 16215 | 26266
3 | 5:50.17 | 2:15.08 | 26267 | 36399
4 | 8:05.25 | 2:14.62 | 36400 | 46511
5 | 10:20.12 | 2:46.70 | 46512 | 59031
6 | 13:07.07 | 1:31.63 | 59032 | 65919
7 | 14:38.70 | 2:16.35 | 65920 | 76154
8 | 16:55.30 | 2:29.65 | 76155 | 87394
9 | 19:25.20 | 2:15.42 | 87395 | 97561
10 | 21:40.62 | 2:33.67 | 97562 | 109103
11 | 24:14.54 | 1:43.16 | 109104 | 116844
12 | 25:57.70 | 1:16.37 | 116845 | 122581
13 | 27:14.32 | 2:57.33 | 122582 | 135889
14 | 30:11.65 | 2:29.27 | 135890 | 147091
15 | 32:41.17 | 1:49.58 | 147092 | 155324
16 | 34:31.00 | 2:11.12 | 155325 | 165161
17 | 36:42.12 | 2:51.03 | 165162 | 177989
18 | 39:33.15 | 5:08.27 | 177990 | 201116

Характеристики диапазона извлечения и сообщения об ошибках

Выбранный диапазон

Имя файла I:\LOSSLESS\(AAA-01)\Воплi Вiдоплясова - Країнa Мрiй.wav

Пиковый уровень 94.2 %
Качество диапазона 99.9 %
CRC копии 8FC6A463
Копирование... OK

Ошибок не произошло

AccurateRip: сводка

Трек 1 нет в базе данных
Трек 2 нет в базе данных
Трек 3 нет в базе данных
Трек 4 нет в базе данных
Трек 5 нет в базе данных
Трек 6 нет в базе данных
Трек 7 нет в базе данных
Трек 8 нет в базе данных
Трек 9 нет в базе данных
Трек 10 нет в базе данных
Трек 11 нет в базе данных
Трек 12 нет в базе данных
Трек 13 нет в базе данных
Трек 14 нет в базе данных
Трек 15 нет в базе данных
Трек 16 нет в базе данных
Трек 17 нет в базе данных
Трек 18 нет в базе данных

Ни одного трека нет в базе AccurateRip

Конец отчёта
Audiochecker Log
AUDIOCHECKER v2.0 beta (build 457) - by Dester - [email protected]
~~~~~~~~~~~~~~~~~~~~~~~~~~~~~~~~~~
-=== НЕ РЕДАКТИРУЙТЕ ЭТОТ ФАЙЛ! ===-

Путь: ...\1994 - Країнa Мрiй

001 -=- 01 - Кармен.wav -=- CDDA (100%)
002 -=- 02 - Машина.wav -=- CDDA (100%)
003 -=- 03 - Я пiдiйду.wav -=- CDDA (100%)
004 -=- 04 - Мусса.wav -=- CDDA (100%)
005 -=- 05 - Ты ушел.wav -=- CDDA (100%)
006 -=- 06 - Знову зима.wav -=- CDDA (100%)
007 -=- 07 - Галелуя.wav -=- CDDA (99%)
008 -=- 08 - Alright.wav -=- CDDA (100%)
009 -=- 09 - Автострада у пекло.wav -=- CDDA (100%)
010 -=- 10 - Танцi.wav -=- CDDA (99%)
011 -=- 11 - Легенда о любвi.wav -=- CDDA (99%)
012 -=- 12 - Лiда.wav -=- CDDA (99%)
013 -=- 13 - Шалена зiрка.wav -=- CDDA (100%)
014 -=- 14 - Танго.wav -=- CDDA (100%)
015 -=- 15 - Веселковий твiст.wav -=- CDDA (100%)
016 -=- 16 - Зв'язок.wav -=- CDDA (99%)
017 -=- 17 - Колись.wav -=- CDDA (100%)
018 -=- 18 - Країна мрiй.wav -=- CDDA (100%)

Сводка 99,72% CDDA

173069604
1997 - Музіка


01 - Весна (Vesna) - 5:18
02 - Юра (Youra) - 3:20
03 - Білі плями (Billy pliamy) - 3:00
04 - Музіка (Muzika) - 2:52
05 - Краков'як рок (Krakowiak) - 2:05
06 - Глибина (Glybyna) - 4:20
07 - Гармонія (Harmonia) - 2:50
08 - Гей! Любо! (Hey! Lubo!) - 3:00
09 - Боги (Gods) - 3:04
10 - Галина (Halina) - 2:46
11 - Їхали козаки (Oї, ty Halu) - 2:52
12 - Горіла сосна (Gorila sosna) - 3:01

Тривалість: 00:38:30
Видавець: Країна мрій 2006
Мова: українська
EAC Log
Отчёт EAC об извлечении, выполненном 29. октября 2007, 15:07 для диска:
Unknown Artist / Unknown Title

Дисковод: HL-DT-STDVD-ROM GDR8164B Adapter: 0 ID: 0
Режим чтения: Достоверный (C2: нет, Точный поток: да, Отключение кэша: да)
Комбинированное смещение чтения/записи: 0
Способность читать области Lead-in и Lead-out : Нет

Выходной формат: Внутренние WAV-операции
44.100 Гц; 16 бит; стерео

Другие параметры:
Заполнение пропущенных сэмплов тишиной : Да
Удаление блоков с тишиной в начале и конце : Нет
Встроенный Win32-интерфейс для Win NT/2000

Характеристики диапазона извлечения и сообщения об ошибках
Выбранный диапазон
Имя файла C:\The Classics of Vopli Vidopliassova\Вопли Видоплясова - Музіка (1997)\Вопли Видоплясова - Музіка (1997).wav

Пиковый уровень 98.6 %
Качество диапазона 100.0 %
CRC 49DA357E
Копирование... OK

Ошибок не произошло

Конец отчёта
Audiochecker Log
AUDIOCHECKER v2.0 beta (build 457) - by Dester - [email protected]
~~~~~~~~~~~~~~~~~~~~~~~~~~~~~~~~~~
-=== НЕ РЕДАКТИРУЙТЕ ЭТОТ ФАЙЛ! ===-

Путь: ...\1997 - Музіка

001 -=- 01 - Весна (Vesna).wav -=- CDDA (100%)
002 -=- 02 - Юра (Youra).wav -=- CDDA (100%)
003 -=- 03 - Білі плями (Billy pliamy).wav -=- CDDA (100%)
004 -=- 04 - Музіка (Muzika).wav -=- CDDA (100%)
005 -=- 05 - Краков'як рок (Krakowiak).wav -=- CDDA (99%)
006 -=- 06 - Глибина (Glybyna).wav -=- CDDA (99%)
007 -=- 07 - Гармонія (Harmonia).wav -=- CDDA (100%)
008 -=- 08 - Гей! Любо! (Hey! Lubo!).wav -=- CDDA (100%)
009 -=- 09 - Боги (Gods).wav -=- CDDA (100%)
010 -=- 10 - Галина (Halina).wav -=- CDDA (100%)
011 -=- 11 - Їхали козаки (Oї, ty Halu).wav -=- CDDA (100%)
012 -=- 12 - Горіла сосна (Gorila sosna).wav -=- CDDA (100%)

Сводка 99,83% CDDA

223509828
2000 - Хвилі Амура


01 - День народження - 4:23
02 - Добрий день - 0:18
03 - Любов - 3:16
04 - Обернись - 5:30
05 - Що було - 0:33
06 - Трава - 2:51
07 - Таємні сфери - 3:04
08 - Розмова з Махатмою - 4:43
09 - Як під небом - 0:22
10 - Є-є - 3:33
11 - Товарищ майор - 2:11
12 - Відрада - 3:00
13 - Оля - 2:19
14 - Були на селі - 3:31
15 - Гоп-ця - 3:28
16 - Або-або - 3:12
17 - Бонус - 0:20
18 - Соло - 3:14

Тривалість: 00:49:48
Видавець: Країна мрій 2006
Мова: українська (01-03, 05-10, 12, 14-17), російська (04, 11, 13)
EAC Log
Отчёт EAC об извлечении, выполненном 29. октября 2007, 15:42 для диска:
Вопли Видоплясова / Хвилі Амура

Дисковод: HL-DT-STDVD-ROM GDR8164B Adapter: 0 ID: 0
Режим чтения: Достоверный (C2: нет, Точный поток: да, Отключение кэша: да)
Комбинированное смещение чтения/записи: 0
Способность читать области Lead-in и Lead-out : Нет

Выходной формат: Внутренние WAV-операции
44.100 Гц; 16 бит; стерео

Другие параметры:
Заполнение пропущенных сэмплов тишиной : Да
Удаление блоков с тишиной в начале и конце : Нет
Встроенный Win32-интерфейс для Win NT/2000

Характеристики диапазона извлечения и сообщения об ошибках
Выбранный диапазон
Имя файла C:\The Classics of Vopli Vidopliassova\Вопли Видоплясова - Хвилі Амура (2000)\Вопли Видоплясова - Хвилі Амура (2000).wav

Пиковый уровень 100.0 %
Качество диапазона 99.9 %
CRC 35E7F02B
Копирование... OK

Ошибок не произошло

Конец отчёта
Audiochecker Log
AUDIOCHECKER v2.0 beta (build 457) - by Dester - [email protected]
~~~~~~~~~~~~~~~~~~~~~~~~~~~~~~~~~~
-=== НЕ РЕДАКТИРУЙТЕ ЭТОТ ФАЙЛ! ===-

Путь: ...\2000 - Хвилі Амура

001 -=- 01 - День народження.wav -=- CDDA (100%)
002 -=- 02 - Добрий день.wav -=- CDDA (100%)
003 -=- 03 - Любов.wav -=- CDDA (100%)
004 -=- 04 - Обернись.wav -=- CDDA (100%)
005 -=- 05 - Що було.wav -=- CDDA (100%)
006 -=- 06 - Трава.wav -=- CDDA (100%)
007 -=- 07 - Таємні сфери.wav -=- CDDA (99%)
008 -=- 08 - Розмова з Махатмою.wav -=- CDDA (100%)
009 -=- 09 - Як під небом.wav -=- CDDA (100%)
010 -=- 10 - Є-є.wav -=- CDDA (100%)
011 -=- 11 - Товарищ майор.wav -=- CDDA (100%)
012 -=- 12 - Відрада.wav -=- CDDA (100%)
013 -=- 13 - Оля.wav -=- CDDA (100%)
014 -=- 14 - Були на селі.wav -=- CDDA (100%)
015 -=- 15 - Гоп-ця.wav -=- CDDA (100%)
016 -=- 16 - Або-або.wav -=- CDDA (100%)
017 -=- 17 - Бонус.wav -=- CDDA (100%)
018 -=- 18 - Соло.wav -=- CDDA (100%)

Сводка 99,94% CDDA

75075268
2001 - День нароDJення


01 - Den NaroDJennia - 4:17
02 - Ne doumay - 4:37
03 - My - deti - 4:27
04 - Tombe la neige - 3:39
05 - Rai - 4:04
06 - California RMX - 4:42
07 - Mahatma - 5:15
08 - Melodia - 6:59
09 - Den NaroDJennia2 (sufi version) - 4:44

Тривалість: 00:42:43
Видавець: Країна мрій 2006
Мова: українська (01-09), французька (04), російська (08)
EAC Log
Exact Audio Copy V0.99 prebeta 5 from 4. May 2009

Отчёт EAC об извлечении, выполненном 16. марта 2010, 3:47

Воплі Відоплясова / День нароDJення

Дисковод: PIONEER DVD-RW DVR-212 Adapter: 7 ID: 0

Режим чтения : Достоверность
Использование точного потока : Да
Отключение кэша аудио : Да
Использование указателей C2 : Нет

Коррекция смещения при чтении : 48
Способность читать области Lead-in и Lead-out : Нет
Заполнение пропущенных сэмплов тишиной : Да
Удаление блоков с тишиной в начале и конце : Нет
При вычислениях CRC использовались нулевые сэмплы : Да
Интерфейс : Установленный внешний ASPI-интерфейс

Выходной формат : Внутренние WAV-операции
Формат сэмплов : 44.100 Гц; 16 бит; стерео

TOC извлечённого CD

Трек | Старт | Длительность | Начальный сектор | Конечный сектор
---------------------------------------------------------------------
1 | 0:00.00 | 4:17.25 | 0 | 19299
2 | 4:17.25 | 4:36.48 | 19300 | 40047
3 | 8:53.73 | 4:26.70 | 40048 | 60067
4 | 13:20.68 | 3:38.51 | 60068 | 76468
5 | 16:59.44 | 4:04.25 | 76469 | 94793
6 | 21:03.69 | 4:42.07 | 94794 | 115950
7 | 25:46.01 | 5:14.52 | 115951 | 139552
8 | 31:00.53 | 6:58.49 | 139553 | 170951
9 | 37:59.27 | 4:43.65 | 170952 | 192241

Характеристики диапазона извлечения и сообщения об ошибках

Выбранный диапазон

Имя файла B:\MP 3\Воплi Вiдоплясова (FLAC)\2001 День нароDJення\Воплі Відоплясова - День нароDJення.wav

Пиковый уровень 96.6 %
Качество диапазона 99.9 %
CRC теста 662802F3
CRC копии 662802F3
Копирование... OK

Ошибок не произошло

AccurateRip: сводка

Трек 1 нет в базе данных
Трек 2 нет в базе данных
Трек 3 нет в базе данных
Трек 4 нет в базе данных
Трек 5 нет в базе данных
Трек 6 нет в базе данных
Трек 7 нет в базе данных
Трек 8 нет в базе данных
Трек 9 нет в базе данных

Ни одного трека нет в базе AccurateRip

Конец отчёта
Audiochecker Log
AUDIOCHECKER v2.0 beta (build 457) - by Dester - [email protected]
~~~~~~~~~~~~~~~~~~~~~~~~~~~~~~~~~~
-=== DO NOT EDIT THIS FILE! ===-

Path: ...\2001 - День нароDJення

01 -=- 01 - Den NaroDJennia.wav -=- CDDA (100%)
02 -=- 02 - Ne doumay.wav -=- CDDA (100%)
03 -=- 03 - My - deti.wav -=- CDDA (100%)
04 -=- 04 - Tombe la neige.wav -=- CDDA (100%)
05 -=- 05 - Rai.wav -=- CDDA (100%)
06 -=- 06 - California RMX.wav -=- CDDA (99%)
07 -=- 07 - Mahatma.wav -=- CDDA (100%)
08 -=- 08 - Melodia.wav -=- CDDA (100%)
09 -=- 09 - Den NaroDJennia2 (sufi version).wav -=- CDDA (100%)

Summary 99,89% CDDA

75501540
2002 - FaYno


01 - Світ - 3:49
02 - Рай - 4:23
03 - Полонина - 3:46
04 - Попs - 3:34
05 - Апокалипсис - 2:29
06 - Пачка цигарок - 5:38
07 - Сонячні дні - 3:56
08 - Море - 4:56
09 - Зоряна осінь - 4:16
10 - Ізнов - 2:45
11 - Мамай - 5:28
12 - Велика сила - 3:39
13 - Динама - 5:29
14 - Музика дика - 4:31
15 - Підманула - 4:08
16 - Осень - 4:16
17 - The Pack Of Cigarettes - 5:38
18 - Les Jours Ensoleilles - 3:58

Тривалість: 01:16:41
Видавець: Lavina Music 2002
Мова: українська (01-04, 06-15), російська (05, 16), французька (17-18)
EAC Log
Отчёт EAC об извлечении, выполненном 30. октября 2007, 11:58 для диска:
Вопли Видоплясова / FaYno

Дисковод: HL-DT-STDVD-ROM GDR8164B Adapter: 0 ID: 0
Режим чтения: Достоверный (C2: нет, Точный поток: да, Отключение кэша: да)
Комбинированное смещение чтения/записи: 0
Способность читать области Lead-in и Lead-out : Нет

Выходной формат: Внутренние WAV-операции
44.100 Гц; 16 бит; стерео

Другие параметры:
Заполнение пропущенных сэмплов тишиной : Да
Удаление блоков с тишиной в начале и конце : Нет
Встроенный Win32-интерфейс для Win NT/2000

Характеристики диапазона извлечения и сообщения об ошибках
Выбранный диапазон
Имя файла C:\The Classics of Vopli Vidopliassova\Вопли Видоплясова - FaYno (2002)\Вопли Видоплясова - FaYno (2002).wav

Пиковый уровень 97.7 %
Качество диапазона 99.9 %
CRC 378407E6
Копирование... OK

Ошибок не произошло

Конец отчёта
Audiochecker Log
AUDIOCHECKER v2.0 beta (build 457) - by Dester - [email protected]
~~~~~~~~~~~~~~~~~~~~~~~~~~~~~~~~~~
-=== НЕ РЕДАКТИРУЙТЕ ЭТОТ ФАЙЛ! ===-

Путь: ...\2002 - FaYno

001 -=- 01 - Світ.wav -=- CDDA (100%)
002 -=- 02 - Рай.wav -=- CDDA (100%)
003 -=- 03 - Полонина.wav -=- CDDA (100%)
004 -=- 04 - Попs.wav -=- CDDA (99%)
005 -=- 05 - Апокалипсис.wav -=- CDDA (100%)
006 -=- 06 - Пачка цигарок.wav -=- CDDA (100%)
007 -=- 07 - Сонячні дні.wav -=- CDDA (100%)
008 -=- 08 - Море.wav -=- CDDA (100%)
009 -=- 09 - Зоряна осінь.wav -=- CDDA (99%)
010 -=- 10 - Ізнов.wav -=- CDDA (100%)
011 -=- 11 - Мамай.wav -=- CDDA (100%)
012 -=- 12 - Велика сила.wav -=- CDDA (100%)
013 -=- 13 - Динама.wav -=- CDDA (100%)
014 -=- 14 - Музика дика.wav -=- CDDA (100%)
015 -=- 15 - Підманула.wav -=- CDDA (100%)
016 -=- 16 - Осень.wav -=- CDDA (100%)
017 -=- 17 - The Pack Of Cigarettes.wav -=- CDDA (99%)
018 -=- 18 - Les Jours Ensoleilles.wav -=- CDDA (100%)

Сводка 99,83% CDDA

28956068
2006 - Були деньки


01 - Пісенька - 3:47
02 - А-ба-бап - 2:07
03 - Пісня - 2:52
04 - А чи то - 2:40
05 - Були деньки - 3:01
06 - Заднє око - 2:03
07 - Колискова - 4:19
08 - Політрок - 2:21
09 - Червоні коні - 2:11
10 - Гей, налягай - 2:16
11 - Дитинство - 4:01
12 - Катерина - 2:56

Тривалість: 00:34:33
Видавець: Країна мрій 2006
Мова: українська
EAC Log
Отчёт EAC об извлечении, выполненном 30. октября 2007, 12:31 для диска:
Вопли Видоплясова / Були деньки

Дисковод: HL-DT-STDVD-ROM GDR8164B Adapter: 0 ID: 0
Режим чтения: Достоверный (C2: нет, Точный поток: да, Отключение кэша: да)
Комбинированное смещение чтения/записи: 0
Способность читать области Lead-in и Lead-out : Нет

Выходной формат: Внутренние WAV-операции
44.100 Гц; 16 бит; стерео

Другие параметры:
Заполнение пропущенных сэмплов тишиной : Да
Удаление блоков с тишиной в начале и конце : Нет
Встроенный Win32-интерфейс для Win NT/2000

Характеристики диапазона извлечения и сообщения об ошибках
Выбранный диапазон
Имя файла C:\The Classics of Vopli Vidopliassova\Вопли Видоплясова - Були деньки (2006)\Вопли Видоплясова - Були деньки (2006).wav

Пиковый уровень 100.0 %
Качество диапазона 99.9 %
CRC F8A046DD
Копирование... OK

Ошибок не произошло

Конец отчёта
Audiochecker Log
AUDIOCHECKER v2.0 beta (build 457) - by Dester - [email protected]
~~~~~~~~~~~~~~~~~~~~~~~~~~~~~~~~~~
-=== НЕ РЕДАКТИРУЙТЕ ЭТОТ ФАЙЛ! ===-

Путь: ...\2006 - Були деньки

001 -=- 01 - Пісенька.wav -=- CDDA (100%)
002 -=- 02 - А-ба-бап.wav -=- CDDA (100%)
003 -=- 03 - Пісня.wav -=- CDDA (100%)
004 -=- 04 - А чи то.wav -=- CDDA (100%)
005 -=- 05 - Були деньки.wav -=- CDDA (100%)
006 -=- 06 - Заднє око.wav -=- CDDA (100%)
007 -=- 07 - Колискова.wav -=- CDDA (100%)
008 -=- 08 - Політрок.wav -=- CDDA (100%)
009 -=- 09 - Червоні коні.wav -=- CDDA (100%)
010 -=- 10 - Гей, налягай.wav -=- CDDA (100%)
011 -=- 11 - Дитинство.wav -=- CDDA (100%)
012 -=- 12 - Катерина.wav -=- CDDA (100%)

Сводка 100,00% CDDA

96819684
2008 - Гімн-Славень України


01 - Гімн України «Ще не вмерла Україна...» - 3:09
02 - Славень України «Квітне рідна Україна...» - 1:40

Тривалість: 00:00:00
Видавець: Країна мрій 2008
Мова: українська
EAC Log
Exact Audio Copy V0.99 prebeta 5 from 4. May 2009

Отчёт EAC об извлечении, выполненном 14. мая 2010, 14:56

Воплi Вiдоплясова / Гімн-Славень України

Дисковод: PIONEER DVD-RW DVR-212 Adapter: 8 ID: 0

Режим чтения : Достоверность
Использование точного потока : Да
Отключение кэша аудио : Да
Использование указателей C2 : Нет

Коррекция смещения при чтении : 48
Способность читать области Lead-in и Lead-out : Нет
Заполнение пропущенных сэмплов тишиной : Да
Удаление блоков с тишиной в начале и конце : Нет
При вычислениях CRC использовались нулевые сэмплы : Да
Интерфейс : Установленный внешний ASPI-интерфейс

Выходной формат : Внутренние WAV-операции
Формат сэмплов : 44.100 Гц; 16 бит; стерео

TOC извлечённого CD

Трек | Старт | Длительность | Начальный сектор | Конечный сектор
---------------------------------------------------------------------
1 | 0:00.00 | 3:08.71 | 0 | 14170
2 | 3:08.71 | 1:39.69 | 14171 | 21664
3 | 7:20.65 | 1:08.19 | 33065 | 38183

Характеристики диапазона извлечения и сообщения об ошибках

Выбранный диапазон

Имя файла B:\MP 3\Воплi Вiдоплясова (FLAC)\2008 Гімн-Славень України\Воплi Вiдоплясова - Гімн-Славень України.wav

Пиковый уровень 98.1 %
Качество диапазона 100.0 %
CRC теста 7565B065
CRC копии 7565B065
Копирование... OK

Ошибок не произошло

AccurateRip: сводка

Трек 1 нет в базе данных
Трек 2 нет в базе данных

Ни одного трека нет в базе AccurateRip

Конец отчёта
Audiochecker Log
AUDIOCHECKER v2.0 beta (build 457) - by Dester - [email protected]
~~~~~~~~~~~~~~~~~~~~~~~~~~~~~~~~~~
-=== DO NOT EDIT THIS FILE! ===-

Path: ...\2008 - Гімн-Славень України

01 -=- 01 - Гімн України «Ще не вмерла Україна...».wav -=- CDDA (100%)
02 -=- 02 - Славень України «Квітне рідна Україна...».wav -=- CDDA (100%)

Summary 100,00% CDDA

245853396
2008 - На сценi фестивалю РОК-СIЧ


01 - Полонина - 3:50
02 - Пiсенька - 3:28
03 - Дитинство - 3:46
04 - Є-є - 4:10
05 - Юра - 4:16
06 - Любов - 3:38
07 - День народження - 4:30
08 - Були деньки - 3:41
09 - Були на селi - 4:59
10 - Розмова з махатмою - 6:20
11 - Горiла сосна - 3:09
12 - Галю, приходь - 2:55
13 - Їхали козаки - 2:35
14 - Гей, любо! - 3:17
15 - Розпрягайте, хлопцi, коней - 3:43
16 - Весна - 5:20
17 - Танцi - 6:08
18 - Катерина - 3:37

Тривалість: 01:13:21
Видавець: Країна мрій
Мова: українська
EAC Log
Exact Audio Copy V0.99 prebeta 4 from 23. January 2008

Отчёт EAC об извлечении, выполненном 2. октября 2008, 8:40

Воплi Вiдоплясова / На сценi фестивалю РОК-СIЧ

Дисковод: _NEC DVD_RW ND-3500AG Adapter: 0 ID: 0

Режим чтения : Достоверность
Использование точного потока : Да
Отключение кэша аудио : Да
Использование указателей C2 : Нет

Коррекция смещения при чтении : 48
Способность читать области Lead-in и Lead-out : Нет
Заполнение пропущенных сэмплов тишиной : Да
Удаление блоков с тишиной в начале и конце : Нет
При вычислениях CRC использовались нулевые сэмплы : Да
Интерфейс : Установленный внешний ASPI-интерфейс

Выходной формат : Внутренние WAV-операции
Формат сэмплов : 44.100 Гц; 16 бит; стерео

TOC извлечённого CD

Трек | Старт | Длительность | Начальный сектор | Конечный сектор
---------------------------------------------------------------------
1 | 0:00.00 | 3:50.14 | 0 | 17263
2 | 3:50.14 | 3:28.02 | 17264 | 32865
3 | 7:18.16 | 3:46.21 | 32866 | 49836
4 | 11:04.37 | 4:10.03 | 49837 | 68589
5 | 15:14.40 | 4:16.09 | 68590 | 87798
6 | 19:30.49 | 3:37.67 | 87799 | 104140
7 | 23:08.41 | 4:29.52 | 104141 | 124367
8 | 27:38.18 | 3:40.43 | 124368 | 140910
9 | 31:18.61 | 4:59.27 | 140911 | 163362
10 | 36:18.13 | 6:20.36 | 163363 | 191898
11 | 42:38.49 | 3:08.45 | 191899 | 206043
12 | 45:47.19 | 2:54.50 | 206044 | 219143
13 | 48:41.69 | 2:34.49 | 219144 | 230742
14 | 51:16.43 | 3:17.13 | 230743 | 245530
15 | 54:33.56 | 3:42.58 | 245531 | 262238
16 | 58:16.39 | 5:19.46 | 262239 | 286209
17 | 63:36.10 | 6:08.18 | 286210 | 313827
18 | 69:44.28 | 3:37.04 | 313828 | 330106

Характеристики диапазона извлечения и сообщения об ошибках

Выбранный диапазон

Имя файла C:\AUDIO\CDCOPY\Воплi Вiдоплясова - На сценi фестивалю РОК-СIЧ.wav

Пиковый уровень 100.0 %
Качество диапазона 99.9 %
CRC теста 506EC161
CRC копии 506EC161
Копирование... OK

Ошибок не произошло

Конец отчёта
Audiochecker Log
AUDIOCHECKER v2.0 beta (build 457) - by Dester - [email protected]
~~~~~~~~~~~~~~~~~~~~~~~~~~~~~~~~~~
-=== НЕ РЕДАКТИРУЙТЕ ЭТОТ ФАЙЛ! ===-

Путь: ...\2008 - На сценi фестивалю РОК-СIЧ

01 -=- 01 - Полонина.wav -=- CDDA (100%)
02 -=- 02 - Пiсенька.wav -=- CDDA (100%)
03 -=- 03 - Дитинство.wav -=- CDDA (100%)
04 -=- 04 - Є-є.wav -=- CDDA (100%)
05 -=- 05 - Юра.wav -=- CDDA (100%)
06 -=- 06 - Любов.wav -=- CDDA (100%)
07 -=- 07 - День народження.wav -=- CDDA (100%)
08 -=- 08 - Були деньки.wav -=- CDDA (100%)
09 -=- 09 - Були на селi.wav -=- CDDA (100%)
10 -=- 10 - Розмова з махатмою.wav -=- CDDA (100%)
11 -=- 11 - Горiла сосна.wav -=- CDDA (100%)
12 -=- 12 - Галю, приходь.wav -=- CDDA (100%)
13 -=- 13 - Їхали козаки.wav -=- CDDA (100%)
14 -=- 14 - Гей, любо!.wav -=- CDDA (100%)
15 -=- 15 - Розпрягайте, хлопцi, коней.wav -=- CDDA (100%)
16 -=- 16 - Весна.wav -=- CDDA (100%)
17 -=- 17 - Танцi.wav -=- CDDA (100%)
18 -=- 18 - Катерина.wav -=- CDDA (100%)

Сводка 100,00% CDDA

257071508
Тривалість: 10:01:48
Мова: українська (01-13), російська (01-03, 05-06, 08, 12), французька (02, 06, 13)
Ріп: image+ Embedded CUE/EAC/audiochecker/cover)
EAC: Secure + Accurate stream + disable cache/C2 (Read offset correction не у всіх альбомах!)
Бітрейт: lossless (~873-1044 кбіт/с)

Сольні проекти:
Скрипка Олег | Дискографія [2 альбоми, 1 бутлег] (2001-2009) [FLAC] | Folk Rock
Рогачевський Євген - Иіцкій аун (2006) [FLAC] | Folk Rock
VA - Олег Скрипка - Презентує Пісні Барикад (2005) [FLAC] | Folk / Bard
ОНОВЛЕНО 28.02.2010
Додано збірку "2008 - Збірка романтична
ОНОВЛЕНО 09.02.2011

4 збірки переміщено в підпапку Compilations
Сингл "2010 - Ладо" переміщено в підпапку Singles
Додано 2 альбоми: 2001 - День нароDJення, 2008 - Гімн-Славень України
Додано 4 сингли: 1998 - Любовь [Maxi], 2001 - Мамай, 2009 - Чіо Чіо Сан, 2010 - Вiдпустка

Джерело: bruk67 (rutracker.org)


Золотий реліз (завантажене не впливає на рейтинг)
 Трекер:    Зареєстрований   

Завантажити / скачати українську музику



відео для новачків



 Зареєстрований:   2010-03-02 01:50
 Розмір:   4.23 GB 
 Оцінка музики:   9.7/10 (Голосів: 43)
   
jinotot 
Почесний оцифрувальник літератури


З нами з: 28.01.09
Востаннє: 04.12.16
Повідомлень: 3235

2009-10-06 23:36  
plyrvt, а чому саме такі альбоми в колекції?
Змушений буду розчарувати, усе, що не ВВ, доведеться зробити окремими релізами. А тут залишити лише ті альбоми, які належать Воплям.
Якісь контр-аргументи будуть? Послухаю Happy

plyrvt 
VIP


З нами з: 03.12.08
Востаннє: 03.12.16
Повідомлень: 398

2009-10-06 23:51  
Цитата:
а чому саме такі альбоми в колекції?

давай інші - додам

з альбомів - ще в них є два сингли (Любов, Мамай), дві збірки (етнічна і романтична) і сольники Скрипки (Інколи) і Піпи + колекційне перевидання сольника Скрипки (Відрада) в якому є 1 новий трек.

Все інше виходило на касетах чи вінілі.

Цитата:
Якісь контр-аргументи будуть? Послухаю

http://vopli.com.ua/music/discography/
Скрипка і Рогачевський не виокремилися в окремі сайд-проекти, а ВВ далі існує і творить.

jinotot 
Почесний оцифрувальник літератури


З нами з: 28.01.09
Востаннє: 04.12.16
Повідомлень: 3235

2009-10-07 00:17  
plyrvt написано:
Скрипка і Рогачевський не виокремилися в окремі сайд-проекти
хм.. дивно це для мене. Якщо співак записує диск один, без гурту, то як це тоді назвати? Як це не назви, але під брендом гурту це тиражуватися не повинно. Сольник є сольник. До того ж, на мою суб'єктивну думку, Скрипка без ВВ -- це досить специфічна музика, зовсім на ВВ не схожа. Тому я би їх не об'єднував все-таки. Рогачевського не чув -- не знаю...
Навіть не знаю, що робити.
Як на мене, то тут варто залишити тільки ті альбоми, які належать безпосередньо гурту, про відсутні альбоми/сингли написати в оформленні (якщо колись з'являться -- додати й оновити торрент) і обізвати то всьо дискографією.
Але щоб не скидалося на диктатуру та самоуправство, пропоную послухати ще Skiff'а та інших колєґ Happy

Skiff 
музика
музика


З нами з: 12.11.07
Востаннє: 06.12.16
Повідомлень: 3051

2009-10-07 00:29  
plyrvt написано:
http://vopli.com.ua/music/discography/

Підтримую написане jinotot-ом. Альбоми з Дискографії - реліз Дискографія. Сольники окремо.

plyrvt 
VIP


З нами з: 03.12.08
Востаннє: 03.12.16
Повідомлень: 398

2009-10-07 00:31  
jinotot вирішуйте як хочте.
В оформлення додам відсутні сингли/збірки, і довикладу "етнічну збірку"

elliadan 
Новенький


З нами з: 20.10.09
Востаннє: 15.07.10
Повідомлень: 4

2009-10-22 12:41  
От величезне дякую автору !!!! Лише б трохи сідерів сюди...
plyrvt 
VIP


З нами з: 03.12.08
Востаннє: 03.12.16
Повідомлень: 398

2009-10-22 15:29  
elliadan ви будете першим сідером, після 22 швидкість в 3 рази вища
kioshko 
Частий відвідувач


З нами з: 26.09.09
Востаннє: 01.12.16
Повідомлень: 31

2009-11-05 16:21  
ее, а можна швидкості? будь ласка)
ukrop 
Свій


З нами з: 23.03.09
Востаннє: 12.10.16
Повідомлень: 74

2009-11-12 23:44  
Здоров був, plyrvt . Інстра поки напівпорожня, тому Happy це знов я зі своїми питаннями
А чого без *.cue? Я так розумію, без нього нарізати ніяк?
зі.Вантажив лише "2009 - Ладо", бо інше маю на дисках. Кому стане при нагоді, ось мій самостворенний куй до цього флака
2009 - Ладо (maxi single).cue
REM GENRE Rock
REM GENRE Folk-Rock
REM DATE 2009
REM DISCID 5C099D07
REM COMMENT "ExactAudioCopy v0.99pb4"
PERFORMER "Воплі Відоплясова"
TITLE "Ладо"
FILE "2009 - Ладо (maxi single).flac" WAVE
TRACK 01 AUDIO
TITLE "Ладо"
INDEX 01 00:00:00
TRACK 02 AUDIO
TITLE "Лети, моя мила сестро"
INDEX 00 06:07:42
INDEX 01 06:09:42
TRACK 03 AUDIO
TITLE "Марш січових стрільців"
INDEX 00 10:46:33
INDEX 01 10:48:33
TRACK 04 AUDIO
TITLE "Alain Delon"
INDEX 00 14:24:50
INDEX 01 14:26:50
TRACK 05 AUDIO
TITLE "Голубка"
INDEX 00 19:10:51
INDEX 01 19:12:51
TRACK 06 AUDIO
TITLE "Ладо (radio version)"
INDEX 00 22:30:14
INDEX 01 22:32:14
*у теці з флаком створити текстовий файл з наведенним змістом, та й перейменувати в 2009 - Ладо (maxi single).cue. Принаймні, gCue2tracks порізала без зауважень

plyrvt 
VIP


З нами з: 03.12.08
Востаннє: 03.12.16
Повідомлень: 398

2009-11-12 23:55  
ukrop

ukrop боюся коли інструкція буде повна, Вам це не сильно допоможе. Навіть під Windows нормальний софт (плеєри, конвертери) який в повній мірі підтримує CUE можна перелічити на половині пальців лівої руки: foobar2000, AIMP2 (Player & Converter), dBpoweramp Music Converter (dMC)

Під Linux наскільки мені відомо, немає жодного (якщо вже зявилися - то дайте знати, а ще краще зробіть опис для Інструкції)

Цитата:
А чого без *.cue? Я так розумію, без нього нарізати ніяк?

CUE інтегрований (embedded). Побачити його, зберегти в зовнішній файл, видалити, редагувати - можна натиснувши клавішу 'E' в foobar2000
Для конвертування в будь-який формат (нарізання - частковий випадок конвертування) зовнішній файл CUE не потрібен, кожна з 2 перелічених вище плеєрів і кожен з 3 перелічених конверторів роблять це автоматично читаючи інтегрований CUE

Як це все робити під Linux - без поняття. На лінукс-форумах компромісний варіант до якого сходяться - юзати foobar2000 через емулятор.

ukrop 
Свій


З нами з: 23.03.09
Востаннє: 12.10.16
Повідомлень: 74

2009-11-13 11:33  
Ну якщо так, то воно і нікому не допоможе.
Ну і нашо він треба, CUE інтегрований, коли така головоморока х_Х тільки фобар розуміє?

plyrvt 
VIP


З нами з: 03.12.08
Востаннє: 03.12.16
Повідомлень: 398

2009-11-13 13:17  
ukrop

Цитата:
Ну і нашо він треба, CUE інтегрований, коли така головоморока

Ну під Windows ніякої головомороки, ті плеєри які підтримують CUE ті й підтримують інтегрований CUE

На рахунок Linux - нічим не допоможу не користувався. Якщо допоможете в інструкції для користувачів Linux - добре. Ось для наводки:
http://falf.sourceforge.net/

http://lists.xiph.org/pipermail/flac/2007-August/001037.html
http://forum.ubuntu.ru/index.php?topic=72663.0

Взагалі, якщо lossless доставляє вам стільки проблем, навіщо ви з ним заморочуєтеся? Качайте mp3. Чи як в тому анекдоті "йожики плакали, кололись, але вперто продовжували..."

ukrop 
Свій


З нами з: 23.03.09
Востаннє: 12.10.16
Повідомлень: 74

2009-11-13 18:11  
plyrvt
Цитата:
Взагалі, якщо lossless доставляє вам стільки проблем,

Хто таке сказав, що проблем, ...мені?
Я хочу розібратися, бо воно для мене дещо нове. Ваши натяки на їжаків, залиште при собі. Бо все в мене ріжиться і грає. Може трохи чайник у аудіо Lossless, але це не привід до подібних викидів.
Ваші наводки вже колись бачив, дякую, може кому стануть при нагоді.
Для чого заморочуюсь, поясню, хоч воно і так мабуть зрозуміло. По перше - якість, по друге - наявність. Для себе ріжу на ogg 9-ї якості, ...mp3 таку якість не дає (звісно, що мова про Kbps), а воно то різницю чутно.
І нічого перетикувати лінуксом, знов таки , щось з розряду WIN-червоноокості ? Ситуація однакова, хоч винь, хоч лінь - куй воно куй і є.
Головоморока для всіх, і для Win юзерів також. Бо самі навели перелік всіх тих " плеєри які підтримують CUE", а якщо людині не подобається а ні перший, а ні другий. Крім того, всі ми з вінди. То думку маю з досвіда і про трохи незграбний фобар, і про аімп... До речі, AIMP інтегрований CUE бачить? ...
ЗІ. Wide grin Сходив до сусіда, кинув цей флак на AIMP - БАЛАЛАЙКУ! У плейлисті лише "Ладо (maxi single)" без переліку пісень, а таке розуміння в кожному лінуксовому плеєрі. ...версію аімпу не глянув, стратив, але це мабуть не суттєво. Tongue out (1)

plyrvt 
VIP


З нами з: 03.12.08
Востаннє: 03.12.16
Повідомлень: 398

2009-11-13 19:27  
ukrop
Цитата:
Ситуація однакова, хоч винь, хоч лінь - куй воно куй і є.

Ситуація мяко кажучи не однакова. Починаючи з того що людство створило поки що єдину програму яка вміє коректно знімати ріпи і визнається в середовищі аудіофілів - EAC (і та вже давним давно не розвивається, хоча має ряд критичних недоліків). Так сталося що EAC існує лише під Windows.
Існує альтернативний проект - dbPowerAmp (він практично досяг і перевершив рівень EAC, але він платний), і він теж лише Win.

Тому, щоб говорити, що ситуація однакова,- треба щоб спільнота opensource хоча б започаткувала аналогічний проект (або доробила існуючі unix-ріпалки).

Цитата:
То думку маю з досвіда і про трохи незграбний фобар

фобар не можна охарактеризувати ні як зграбний ні як незграбний, бо він має лінукс-концепцію, коли є голе ядро, і під яке є безліч модулів, які визначають і функції і зовнішній вигляд. Якщо у вас був незграбний - значить була незграбна підбірка модулів і їх налаштування. Я рекомендую - http://foobar2000.wordpress.com

ssTAss 
Модератор музики


З нами з: 05.07.08
Востаннє: 06.12.16
Повідомлень: 10946

2009-11-13 19:35  
plyrvt, ukrop прошу обговорювати формати, ріпання, читання, що підтримує та чи інша програма у розділі "Обговорення та ідеї" чи "Технічні питання"... хочете - можете в приваті побесідувати
тут бажано говорити про реліз як такий

ukrop 
Свій


З нами з: 23.03.09
Востаннє: 12.10.16
Повідомлень: 74

2009-11-13 19:44  
оК.
Коли казав однакова, то зі свого боку - хто слухає. Коли доросту до ріперства, то подивлюсь інакше.
Але все зводиться до пропозиції - не оминайте окремий *.сue.

ssTAss
Втямив, пішов сюди

jinotot 
Почесний оцифрувальник літератури


З нами з: 28.01.09
Востаннє: 04.12.16
Повідомлень: 3235

2009-11-13 21:00  
ukrop написано:
Втямив, пішов сюди

plyrvt, ukrop! А чи не могли б ви всі свої дописи, які стосуються особливостей релізів у лузлесі перенести до тієї теми? Бо впевнений -- багато кому це також буде цікаво почитати, але шукати подібну інформацію тут або тут -- ніхто не здогадається. Оскільки я можу тільки відокремити частину дописів в окрему нову тему, а відокремлювати пости з однієї теми і прикріпляти до іншої -- ні, то пропоную вам зробити це самостійно -- шляхом старого доброго копі-пасту. А коли перенесете, то тут і тут видалите ті дописи, які стосуються обговорення формату і не стосуються безпосередньо релізу.
Згода? Wink (2) Буду вдячний!

plyrvt 
VIP


З нами з: 03.12.08
Востаннє: 03.12.16
Повідомлень: 398

2009-11-13 21:05  
Цитата:
Оскільки я можу тільки відокремити частину дописів в окрему нову тему, а відокремлювати пости з однієї теми і прикріпляти до іншої -- ні

виокреміть звідси в нову тему починаючи з поста ukrop

jinotot 
Почесний оцифрувальник літератури


З нами з: 28.01.09
Востаннє: 04.12.16
Повідомлень: 3235

2009-11-13 21:18  
plyrvt, із задоволенням, але прошу порадити -- як мені ту тему назвати? Wink (1)
І ще -- що робити з постами звідси? Happy

ukrop 
Свій


З нами з: 23.03.09
Востаннє: 12.10.16
Повідомлень: 74

2009-11-13 21:49  
Згоден.
Цитата:
як мені ту тему назвати?

Питання щодо audio Lossless (FLAC, APE і *.cue з ними)
Цитата:
І ще -- що робити з постами звідси?

якщо можете, то пропоную теж саме - об'єднати...
ЗІ. якщо ні, то свої перенесу, якщо треба...

plyrvt 
VIP


З нами з: 03.12.08
Востаннє: 03.12.16
Повідомлень: 398

2010-02-28 04:03  
Прохання до сідерів - перекачати торент, додався новий альбом.
Tarasyk 
Відео Гуртом - фільмокрай
Відео Гуртом - фільмокрай


З нами з: 26.08.09
Востаннє: 28.11.16
Повідомлень: 5972

2010-02-28 10:20  
plyrvt написано:
2009 - Ладо

Знайшов кращу обкладинку, бо та була обрізана.

А часом бонусного відео "Ладо" до цього альбому у Вас немає?

jinotot 
Почесний оцифрувальник літератури


З нами з: 28.01.09
Востаннє: 04.12.16
Повідомлень: 3235

2010-02-28 11:47  
Tarasyk, на Толоці воно є -- ТУТА Happy
Щоправда, там, можливо, якість гірша, ніж на диску...ХтоЗна...

Tarasyk 
Відео Гуртом - фільмокрай
Відео Гуртом - фільмокрай


З нами з: 26.08.09
Востаннє: 28.11.16
Повідомлень: 5972

2010-02-28 12:19  
jinotot написано:
Щоправда, там, можливо, якість гірша, ніж на диску...ХтоЗна...

Дивно, чому там написано , бо по скрінах якість досить непогана - мабуть все ж диску взято...

plyrvt 
VIP


З нами з: 03.12.08
Востаннє: 03.12.16
Повідомлень: 398

2010-02-28 14:18  
Цитата:
А часом бонусного відео "Ладо" до цього альбому у Вас немає?

так було ж в цій роздачі давно, якщо диск Enhanced CD, то його вміст - в спойлері "Data CD", а контент в папці "Data"

Tarasyk 
Відео Гуртом - фільмокрай
Відео Гуртом - фільмокрай


З нами з: 26.08.09
Востаннє: 28.11.16
Повідомлень: 5972

2010-02-28 14:33  
plyrvt написано:
так було ж в цій роздачі давно

Ой, а я і не помітив. Вибачте.
plyrvt, а який же ви тоді альбом додали, якщо не Ладо?

jinotot 
Почесний оцифрувальник літератури


З нами з: 28.01.09
Востаннє: 04.12.16
Повідомлень: 3235

2010-02-28 20:27  
Tarasyk, та внизу опису вказано:
plyrvt написано:
ОНОВЛЕНО 28.02.2010
Додано збірку "2008 - Збірка романтична"

Я теж, до речі, не одразу помічаю, що саме оновлено у роздачах plyrvt'а Happy

Tarasyk 
Відео Гуртом - фільмокрай
Відео Гуртом - фільмокрай


З нами з: 26.08.09
Востаннє: 28.11.16
Повідомлень: 5972

2010-02-28 20:39  
jinotot написано:
та внизу опису вказано

Вже побачив, просто коли писав той пост, цього ще не було... Happy

tonumber 
Частий відвідувач


З нами з: 16.05.10
Востаннє: 04.12.16
Повідомлень: 29

2010-06-05 21:33  
AVAST зупинив закачку
...\Downloads\Воплі Відоплясова\2008 - Збірка романтична\Covers\front1.jpg
Win32:Hupigon-ONX[Tri]

!!!!!

Ваш часовий пояс: GMT + 2 Години

Нова тема   Відповісти Сторінка:  1, 2  наступна