Завантажити та скачати торренти українською


W - Два світи (Сезон 1) / W - Two Worlds (Season 1) / 더블유 (2016) 720р

Нові коментарі

Нова тема   Відповісти
Автор Повідомлення
vitexdp 
Новенький


З нами з: 09.07.14
Востаннє: 04.12.16
Повідомлень: 21

2016-11-20 21:45  
W - Два світи (Сезон 1) / W - Two Worlds (Season 1) / 더블유 (2016) 720р

W - Два світи (Сезон 1) / W - Two Worlds (Season 1) / 더블유 (2016) 720р


Жанр: драма, романтичний
Країна: Південна Корея


Кінокомпанія / телеканал: Chorokbaem Media
Режисер: Чон Де-юн
Актори/ролі озвучують: Лі Чон Сок, Хан Хьо Чжу

Сюжет:
Лі Чон Сок ("Піноккіо") і Хан Хьо Чжу ("Dong Yi") втілять фантастичне кохання між чоловіком і жінкою, що живуть в двох паралельних всесвітах, які існують одночасно в сучасному Сеулі...


Тривалість: 1 серія: 60:00 (цілком серій: 16)
Якість:
Відео:
кодек:
розмір кадру: 1280 x 720
бітрейт: 1 764 кб/с

Аудіо:
мова: українська
переклад: одноголосий закадровий
кодек: MP3
бітрейт: 320 кб/с

Джерело озвучення:
bambooua
Скріншоти




Mediainfo

General
Complete name : [bambooua.com] W - Два світи - 1 серія (укр. озвучка).avi
Format : AVI
Format/Info : Audio Video Interleave
File size : 929 MiB
Duration : 1 h 1 min
Overall bit rate : 2 096 kb/s
Writing application : VirtualDubMod 1.5.10.3 | www.virtualdub-fr.org || (build 2550/release)
Writing library : VirtualDubMod build 2550/release

Video
ID : 0
Format : MPEG-4 Visual
Format profile : Advanced [email protected]
Format settings, BVOP : 2
Format settings, QPel : No
Format settings, GMC : No warppoints
Format settings, Matrix : Default (H.263)
Muxing mode : Packed bitstream
Codec ID :
Codec ID/Hint :
Duration : 1 h 1 min
Bit rate : 1 764 kb/s
Width : 1 280 pixels
Height : 720 pixels
Display aspect ratio : 16:9
Frame rate : 29.970 (29970/1000) FPS
Color space : YUV
Chroma subsampling : 4:2:0
Bit depth : 8 bits
Scan type : Progressive
Compression mode : Lossy
Bits/(Pixel*Frame) : 0.064
Stream size : 782 MiB (84%)
Writing library : 73

Audio
ID : 1
Format : MPEG Audio
Format version : Version 1
Format profile : Layer 3
Codec ID : 55
Codec ID/Hint : MP3
Duration : 1 h 1 min
Bit rate mode : Constant
Bit rate : 320 kb/s
Channel(s) : 2 channels
Sampling rate : 44.1 kHz
Compression mode : Lossy
Stream size : 142 MiB (15%)
Alignment : Split accross interleaves
Interleave, duration : 33 ms (1.00 video frame)
Interleave, preload duration : 500 ms


Авторський реліз (завантажувати можна без реєстрації)
 Трекер:    Зареєстрований   

Завантажити / скачати серіал українською



відео для новачків



 Зареєстрований:   2016-11-20 21:45
 Розмір:   12.5 GB 
 Оцінка серіалу:   10/10 (Голосів: 2)
   
11FrYkT 
Модератор відео


З нами з: 20.02.11
Востаннє: 05.12.16
Повідомлень: 3097

2016-11-20 22:12  
vitexdp , те саме з скрінами що і в 2 інших роздачах, напишіть чим робили і тд
vitexdp 
Новенький


З нами з: 09.07.14
Востаннє: 04.12.16
Повідомлень: 21

2016-11-20 22:13  
11FrYkT написано:
те саме з скрінами що і в 2 інших роздачах, напишіть чим робили і тд

вибачайте вже розібрався, робив vlc, перейшов на mplayer, виправляю

Labcomp 
Свій


З нами з: 16.04.08
Востаннє: 05.12.16
Повідомлень: 84

2016-11-21 02:32  
Досить цікаве творіння, особливо сподобались трюки з камерою.
Ваш часовий пояс: GMT + 2 Години

Нова тема   Відповісти