Завантажити та скачати торренти українською


Кишенькові Монстри Сонце та Місяць / Покемони / Pocket Monsters Sun and Moon (2016) [03 з XX] 720p Ukr/Jap | Sub Ukr

Нові коментарі

Нова тема   Відповісти
Автор Повідомлення
RobotaGolosom 
Відео Гуртом - фільмокрай
Відео Гуртом - фільмокрай


З нами з: 09.03.15
Востаннє: 04.12.16
Повідомлень: 97

2016-11-20 14:06  
Кишенькові Монстри Сонце та Місяць / Покемони / Pocket Monsters Sun and Moon (2016) [03 з XX] 720p Ukr/Jap | Sub Ukr

Кишенькові Монстри Сонце та Місяць / Покемони / Pocket Monsters Sun and Moon (2016) [03 з XX] 720p Ukr/Jap | Sub Ukr


Жанр: пригоди, комедія, фентезі
Країна: Японія



0.0 (1 голосів)

Кінокомпанія: OLM
Режисер: Томіясу Дайкі
Ролі озвучують: Оутані Ікуе, Мацумото Ріса, Шіндоу Кей, Уеда Рейна та інші.

Сюжет:
Сатоші з Пікачу поїхали на відпочинок на острови Алола. Де на них очікують нові пригоди, друзі та безліч нових покемонів.


Тривалість: 1 серія: ~00:23:00 (цілком серій: 1 з ХХ)
Перелік серій
Серія 1: Новий острів і Нові Покемони!
Серія 2: Божество-охоронець Капу Кокеко! Наші власні Z-Рухи!!
Серія 3: Приємно по-ззз-знайомитись. Я Ротом Декс бзз!
Якість:
Відео:
кодек: х.264
розмір кадру: 1280 х 720
бітрейт: ~2 497 кб/с

Аудіо # 1:
мова: українська
переклад: двоголосий закадровий
кодек: 2.0
бітрейт: ~200 кб/с

Аудіо # 2:
мова: японська
переклад: оригінал
кодек: 2.0
бітрейт: ~163 кб/с

Субтитри 1:
мова: українська (написи)
тип: програмні (м'які)
формат: *.ass

Субтитри 2:
мова: українська (повні)
тип: програмні (м'які)
формат: *.ass
MediaInfo
General
Unique ID : 216805028188385305994715799644598425438 (0xA31B212CB0C4FD45A57855F4AA8BD75E)
Complete name : I:\Anime\[Робота Голосом] Кишенькові Монстри Сонце та Місяць (Pocket Monsters Sun & Moon) [01 з XX] [ 720p ] [UKR, JAP+SUB].mkv
Format : Matroska
Format version : Version 4 / Version 2
File size : 496 MiB
Duration : 23 min
Overall bit rate : 2 887 kb/s
Encoded date : UTC 2016-11-20 09:03:11
Writing application : mkvmerge v9.4.0 ('Knurl') 64bit
Writing library : libebml v1.3.4 + libmatroska v1.4.5
Attachments : Cabold Comic demo.otf / calibri.ttf / calibrib.ttf / segoeuib.ttf / segoeuiz.ttf

Video
ID : 1
Format : AVC
Format/Info : Advanced Video Codec
Format profile : [email protected]
Format settings, CABAC : Yes
Format settings, ReFrames : 6 frames
Codec ID : V_MPEG4/ISO/AVC
Duration : 23 min
Bit rate : 2 497 kb/s
Width : 1 280 pixels
Height : 720 pixels
Display aspect ratio : 16:9
Frame rate mode : Constant
Frame rate : 29.970 (30000/1001) FPS
Color space : YUV
Chroma subsampling : 4:2:0
Bit depth : 8 bits
Scan type : Progressive
Bits/(Pixel*Frame) : 0.090
Stream size : 429 MiB (86%)
Writing library : core 148 r2638 7599210
Encoding settings : cabac=1 / ref=6 / deblock=1:1:1 / analyse=0x3:0x113 / me=umh / subme=6 / psy=1 / psy_rd=0.40:0.00 / mixed_ref=1 / me_range=16 / chroma_me=1 / trellis=2 / 8x8dct=1 / cqm=0 / deadzone=21,11 / fast_pskip=1 / chroma_qp_offset=-2 / threads=6 / lookahead_threads=1 / sliced_threads=0 / nr=0 / decimate=1 / interlaced=0 / bluray_compat=0 / constrained_intra=0 / bframes=5 / b_pyramid=2 / b_adapt=2 / b_bias=0 / direct=3 / weightb=1 / open_gop=0 / weightp=2 / keyint=300 / keyint_min=29 / scenecut=40 / intra_refresh=0 / rc_lookahead=40 / rc=crf / mbtree=1 / crf=18.0 / qcomp=0.60 / qpmin=10 / qpmax=51 / qpstep=4 / vbv_maxrate=17500 / vbv_bufsize=14000 / crf_max=0.0 / nal_hrd=none / filler=0 / ip_ratio=1.40 / aq=1:0.60
Language : Japanese
Default : Yes
Forced : No

Audio #1
ID : 2
Format :
Format/Info : Advanced Audio Codec
Format profile : LC
Codec ID : A_AAC
Duration : 23 min
Bit rate : 200 kb/s
Channel(s) : 2 channels
Channel positions : Front: L R
Sampling rate : 48.0 kHz
Frame rate : 46.875 FPS (1024 spf)
Compression mode : Lossy
Delay relative to video : 9 ms
Stream size : 34.4 MiB (7%)
Title : Українська
Language : Ukrainian
Default : Yes
Forced : No

Audio #2
ID : 3
Format :
Format/Info : Advanced Audio Codec
Format profile : LC
Codec ID : A_AAC
Duration : 23 min
Bit rate : 163 kb/s
Channel(s) : 2 channels
Channel positions : Front: L R
Sampling rate : 48.0 kHz
Frame rate : 46.875 FPS (1024 spf)
Compression mode : Lossy
Delay relative to video : 9 ms
Stream size : 28.0 MiB (6%)
Title : Японська
Language : Japanese
Default : No
Forced : No

Text #1
ID : 4
Format : ASS
Codec ID : S_TEXT/ASS
Codec ID/Info : Advanced Sub Station Alpha
Duration : 15 min
Bit rate : 31 b/s
Count of elements : 49
Compression mode : Lossless
Stream size : 3.58 KiB (0%)
Title : Українські (написи)
Language : Ukrainian
Default : Yes
Forced : No

Text #2
ID : 5
Format : ASS
Codec ID : S_TEXT/ASS
Codec ID/Info : Advanced Sub Station Alpha
Duration : 22 min
Bit rate : 137 b/s
Count of elements : 348
Compression mode : Lossless
Stream size : 22.7 KiB (0%)
Title : Українські (повні)
Language : Ukrainian
Default : No
Forced : No

Menu
00:00:00.000 : en:Intro
00:01:17.010 : en:Opening
00:02:38.959 : en:Part A
00:10:46.079 : en:Who's that Pokemon?
00:10:57.891 : en:Part B
00:22:38.891 : en:Ending
Скріншоти




Реліз від:

Переклад: Ейдж, Syperia
Корекція: DEMO, Ейдж
Ролі озвучили: Ейдж (Робота Голосом), Артимко (Quam Рroject)
Робота зі звуком: Ейдж


Авторський реліз (завантажувати можна без реєстрації)
 Трекер:    Зареєстрований   

Завантажити / скачати аніме українською



відео для новачків



 Зареєстрований:   2016-12-01 19:45
 Розмір:   1.35 GB 
 Оцінка аніме:   10/10 (Голосів: 1)
   
EvGaS 
Відео Гуртом - підтримка та поширення
Відео Гуртом - підтримка та поширення


З нами з: 27.02.12
Востаннє: 04.12.16
Повідомлень: 2101

2016-11-20 15:06  
Не знаю чому, але майже завжди якось дуже погано сприймав такі масово-мейнстрімні речі, як покемони.
Не йде, і по тому.

-VipeR- 
VIP


З нами з: 17.07.08
Востаннє: 04.12.16
Повідомлень: 275

2016-11-20 22:07  
Така старомодна картинка ніби дивлюсь аніме 90-го року, тільки замість Еша, якийсь не зрозумілий пацанчик Happy

За переклад, дякую!

RobotaGolosom 
Відео Гуртом - фільмокрай
Відео Гуртом - фільмокрай


З нами з: 09.03.15
Востаннє: 04.12.16
Повідомлень: 97

2016-11-21 00:56  
-VipeR-
Це й є Еш. Просто в японському оригіналі його так звуть

RobotaGolosom 
Відео Гуртом - фільмокрай
Відео Гуртом - фільмокрай


З нами з: 09.03.15
Востаннє: 04.12.16
Повідомлень: 97

2016-11-25 21:51  
Додана 2 серія!

Богдан 2001 
Новенький


З нами з: 26.11.16
Востаннє: 04.12.16
Повідомлень: 1

2016-11-26 14:41  
Дякую за Українську озвучку!!!
RobotaGolosom 
Відео Гуртом - фільмокрай
Відео Гуртом - фільмокрай


З нами з: 09.03.15
Востаннє: 04.12.16
Повідомлень: 97

2016-12-01 19:45  
Додана 3 серія!

Ваш часовий пояс: GMT + 2 Години

Нова тема   Відповісти