Завантажити та скачати торренти українською


Зоряні війни: Пробудження сили / Star Wars: Episode VII - The Force Awakens (2015) 1080p 3D [HalfUOverUnder] Ukr/Eng | Sub Eng

Нові коментарі

Нова тема   Відповісти
Автор Повідомлення
-VipeR- 
VIP


З нами з: 17.07.08
Востаннє: 07.12.16
Повідомлень: 275

2016-11-20 11:06  
Зоряні війни: Пробудження сили / Star Wars: Episode VII - The Force Awakens (2015) 1080p 3D [HalfOverUnder] Ukr/Eng | Sub Eng

Зоряні війни: Пробудження сили / Star Wars: Episode VII - The Force Awakens (2015) 1080p 3D [HalfUOverUnder] Ukr/Eng | Sub Eng


Жанр: екшн, пригодницький, фентезі
Країна: США



Кінокомпанія: Lucasfilm, Bad Robot, Truenorth Productions
Режисер: Джей Джей Абрамс
Актори: Джон Боєґа, Дейзі Рідлі, Оскар Айзек, Адам Драйвер, Домнал Ґлісон, Гарісон Форд, Марк Гемілл, Кері Фішер, Енді Серкіс

Сюжет:
Через тридцять років після загибелі Дарта Вейдера і Імператора галактика як і раніше в небезпеці. Перший Орден на чолі з їх таємничим верховним лідером Сноуком і його правою рукою Кайло Реном йде по стопах Імперії, намагаючись захопити всю владу. У цей нелегкий час доля зводить юну дівчину Рей і колишнього штурмовика Першого Ордена Фінна з героями часів війни з Імперією - Ганом Соло, Чубаккою і генералом Лєєю. Разом вони повинні дати бій Першому Ордену, проте настає той момент, коли стає очевидно, що лише джедаї можуть зупинити Сноука і Кайло Рена. І в галактиці в живих залишається тільки один...


Тривалість: 02:18:06
Якість: 1080p 3D [HalfOverUnder] ash61
Відео:
кодек:
розмір кадру: 1920 х 1080
бітрейт: 14 мбіт/с

Аудіо # 1:
мова: українська
переклад: професійний дубльований
кодек: 5.1
бітрейт: 640 кб/с

Аудіо # 2:
мова: українська
переклад: професійний дубльований
кодек: 5.1
бітрейт: 1536 кб/с

Аудіо # 3:
мова: англійська
переклад: оригінал
кодек: 5.1
бітрейт: 640 кб/с

Субтитри:
мова: українська (Форсовані by ash61)
тип: програмні (м'які)
формат: *.srt

Субтитри:
мова: англійська (Full,SDH)
тип: програмні (м'які)
формат: *.srt
MediaInfo
Код:
General
Unique ID                      : 213414148858250277258457866369558358781 (0xA08E11EA7C127F01B103DD4BE807AAFD)
Complete name                  : D:\3D\Художні\Star Wars Episode VII - The Force Awakens (2015) 1080p 3D [HalfOverUnder] Ukr.Eng.mkv
Format                         : Matroska
Format version                 : Version 4 / Version 2
File size                      : 16.2 GiB
Duration                       : 2h 18mn
Overall bit rate               : 16.8 Mbps
Movie name                     : Star Wars: Episode VII - The Force Awakens (2015) в 3D
Encoded date                   : UTC 2016-11-20 08:33:44
Writing application            : mkvmerge v8.8.0 ('Wind at my back') 64bit
Writing library                : libebml v1.3.3 + libmatroska v1.4.4
Cover                          : Yes
Attachments                    : cover.jpg

Video
ID                             : 1
Format                         : AVC
Format/Info                    : Advanced Video Codec
Format profile                 : [email protected]
Format settings, CABAC         : Yes
Format settings, ReFrames      : 4 frames
Codec ID                       : V_MPEG4/ISO/AVC
Duration                       : 2h 18mn
Bit rate                       : 14.0 Mbps
Width                          : 1 920 pixels
Height                         : 1 080 pixels
Display aspect ratio           : 16:9
Frame rate mode                : Constant
Frame rate                     : 23.976 (24000/1001) fps
Color space                    : YUV
Chroma subsampling             : 4:2:0
Bit depth                      : 8 bits
Scan type                      : Progressive
Bits/(Pixel*Frame)             : 0.281
Stream size                    : 13.5 GiB (83%)
Title                          : by Ash61
Writing library                : core 146 r2538 121396c
Encoding settings              : cabac=1 / ref=4 / deblock=1:-3:-3 / analyse=0x3:0x113 / me=umh / subme=10 / psy=1 / psy_rd=1.00:0.00 / mixed_ref=1 / me_range=32 / chroma_me=1 / trellis=2 / 8x8dct=1 / cqm=0 / deadzone=21,11 / fast_pskip=1 / chroma_qp_offset=-2 / threads=12 / lookahead_threads=3 / sliced_threads=0 / nr=0 / decimate=1 / interlaced=0 / bluray_compat=0 / constrained_intra=0 / bframes=12 / b_pyramid=2 / b_adapt=2 / b_bias=0 / direct=3 / weightb=1 / open_gop=0 / weightp=2 / keyint=250 / keyint_min=23 / scenecut=40 / intra_refresh=0 / rc_lookahead=60 / rc=crf / mbtree=1 / crf=15.5 / qcomp=0.70 / qpmin=0 / qpmax=69 / qpstep=4 / vbv_maxrate=40000 / vbv_bufsize=30000 / crf_max=0.0 / nal_hrd=none / filler=0 / frame-packing=4 / ip_ratio=1.40 / aq=1:0.70
Language                       : English
Default                        : Yes
Forced                         : No

Audio #1
ID                             : 2
Format                         : AC-3
Format/Info                    : Audio Coding 3
Mode extension                 : CM (complete main)
Format settings, Endianness    : Big
Codec ID                       : A_AC3
Duration                       : 2h 18mn
Bit rate mode                  : Constant
Bit rate                       : 640 Kbps
Channel(s)                     : 6 channels
Channel positions              : Front: L C R, Side: L R, LFE
Sampling rate                  : 48.0 KHz
Frame rate                     : 31.250 fps (1536 spf)
Compression mode               : Lossy
Stream size                    : 632 MiB (4%)
Title                          : Дубляж
Language                       : Ukrainian
Default                        : Yes
Forced                         : Yes

Audio #2
ID                             : 3
Format                         :
Format/Info                    : Digital Theater Systems
Mode                           : 16
Format settings, Endianness    : Big
Codec ID                       : A_DTS
Duration                       : 2h 18mn
Bit rate mode                  : Constant
Bit rate                       : 1 510 Kbps
Channel(s)                     : 6 channels
Channel positions              : Front: L C R, Side: L R, LFE
Sampling rate                  : 48.0 KHz
Frame rate                     : 93.750 fps (512 spf)
Bit depth                      : 24 bits
Compression mode               : Lossy
Stream size                    : 1.46 GiB (9%)
Title                          : 5.1 @ 1536 kbps
Language                       : Ukrainian
Default                        : No
Forced                         : No

Audio #3
ID                             : 4
Format                         : AC-3
Format/Info                    : Audio Coding 3
Mode extension                 : CM (complete main)
Format settings, Endianness    : Big
Codec ID                       : A_AC3
Duration                       : 2h 18mn
Bit rate mode                  : Constant
Bit rate                       : 640 Kbps
Channel(s)                     : 6 channels
Channel positions              : Front: L C R, Side: L R, LFE
Sampling rate                  : 48.0 KHz
Frame rate                     : 31.250 fps (1536 spf)
Compression mode               : Lossy
Stream size                    : 632 MiB (4%)
Title                          : Original
Language                       : English
Default                        : No
Forced                         : No

Text #1
ID                             : 5
Format                         : UTF-8
Codec ID                       : S_TEXT/UTF8
Codec ID/Info                  : UTF-8 Plain Text
Duration                       : 58mn 32s
Bit rate                       : 3 bps
Count of elements              : 21
Stream size                    : 1.34 KiB (0%)
Title                          : Форсовані (Ash61)
Language                       : Ukrainian
Default                        : No
Forced                         : No

Text #2
ID                             : 6
Format                         : UTF-8
Codec ID                       : S_TEXT/UTF8
Codec ID/Info                  : UTF-8 Plain Text
Duration                       : 2h 0mn
Bit rate                       : 40 bps
Count of elements              : 1403
Stream size                    : 35.9 KiB (0%)
Title                          : Full
Language                       : English
Default                        : No
Forced                         : No

Text #3
ID                             : 7
Format                         : UTF-8
Codec ID                       : S_TEXT/UTF8
Codec ID/Info                  : UTF-8 Plain Text
Duration                       : 2h 6mn
Bit rate                       : 50 bps
Count of elements              : 1778
Stream size                    : 47.1 KiB (0%)
Title                          : SDH
Language                       : English
Default                        : No
Forced                         : No

Text #4
ID                             : 8
Format                         : UTF-8
Codec ID                       : S_TEXT/UTF8
Codec ID/Info                  : UTF-8 Plain Text
Duration                       : 2h 6mn
Bit rate                       : 74 bps
Count of elements              : 1778
Stream size                    : 69.6 KiB (0%)
Title                          : SDH-Colored
Language                       : English
Default                        : No
Forced                         : No

Menu
00:00:00.000                   : : 1. Opening Logo
00:00:09.259                   : : 2. The Force Awakens
00:01:43.061                   : : 3. The First Order Approaches
00:03:51.855                   : : 4. Village Raid
00:06:12.288                   : : 5. Kylo Ren
00:09:33.947                   : : 6. FN-2187
00:10:43.558                   : : 7. Rey
00:12:35.712                   : : 8. Niima Outpost
00:13:39.692                   : : 9. Rey at Home
00:14:48.220                   : : 10. Saving BB-8
00:16:45.921                   : : 11. Interrogation
00:18:04.583                   : : 12. Unkar's Offer
00:19:21.535                   : : 13. Jailbreak
00:21:26.617                   : : 14. TIE Gighter Escape
00:24:03.650                   : : 15. Marooned on Jakku
00:26:47.021                   : : 16. Crossing Paths
00:29:54.666                   : : 17. Marketplace Chase
00:31:49.324                   : : 18. The Falcon Flies Again
00:35:51.773                   : : 19. Introductions
00:36:40.614                   : : 20. Kylo Is Updated
00:37:45.512                   : : 21. Fixing the Falcon
00:40:19.250                   : : 22. Chewie, We're Home
00:43:39.199                   : : 23. Corellion Stand
00:45:29.559                   : : 24. Rathtar Mayhem
00:49:22.918                   : : 25. Supreme Leader
00:51:19.951                   : : 26. It's All True
00:54:13.750                   : : 27. Meeting Maz
00:59:48.793                   : : 28. Discussions of Destinies
01:04:16.059                   : : 29. Visions in the Force
01:08:37.238                   : : 30. Starkiller
01:11:07.220                   : : 31. First Order Invasion
01:15:16.386                   : : 32. Resistance to the Rescue
01:16:49.895                   : : 33. Kylo Finds Rey
01:19:37.521                   : : 34. Reunion
01:20:56.893                   : : 35. Resistance Base
01:25:36.171                   : : 36. Rey Imprisoned
01:32:12.568                   : : 37. Resistance Briefing
01:35:29.014                   : : 38. Starkiller Landing
01:36:34.954                   : : 39. Base Infiltration
01:39:28.628                   : : 40. X-Wing Attack
01:41:29.957                   : : 41. Rejoining Rey
01:42:57.503                   : : 42. Into The Oscillator
01:45:00.002                   : : 43. Father and Son
01:50:33.710                   : : 44. Dark Forest
01:53:39.770                   : : 45. Oscillator Breached
01:55:22.164                   : : 46. Forest Duel
01:58:05.453                   : : 47. Cataclysm
02:01:05.591                   : : 48. Made Whole
02:02:32.677                   : : 49. Finding the Master
02:07:07.578                   : : 50. End Credits
Скріншоти



Джерело: &

Відео для перегляду на 3D обладнанні!


 Трекер:    Зареєстрований   

Завантажити / скачати фільм українською



відео для новачків



 Зареєстрований:   2016-11-20 11:06
 Розмір:   16.18 GB 
 Оцінка фільму:   9.4/10 (Голосів: 10)
   
zoomymba2012 
Новенький


З нами з: 08.01.15
Востаннє: 07.12.16
Повідомлень: 17

2016-11-20 19:05  
А відео локалізоване?
-VipeR- 
VIP


З нами з: 17.07.08
Востаннє: 07.12.16
Повідомлень: 275

2016-11-20 22:04  
zoomymba2012
Ні, в 3D тільки англомовна версія.

Ваш часовий пояс: GMT + 2 Години

Нова тема   Відповісти