Завантажити та скачати торренти українською


Mad Heads XL | Дискографія [3 альбоми] (2005-2011) [APE] | Rockabilly/Ska-Punk

Нові коментарі

Нова тема   Відповісти
Останній раз роздавалося poi50100 (2016-12-05)
Автор Повідомлення
plyrvt 
VIP


З нами з: 03.12.08
Востаннє: 03.12.16
Повідомлень: 398

2009-10-06 13:17  
Mad Heads XL | Дискографія [3 альбоми] (2005-2011) [APE] | Rockabilly/Ska-Punk



Стиль: Ska Rock'n'Roll
Країна, місто: Україна, Київ
Сайти: Офіційний сайт
Видавець: Comp Music
Виконавці:
Постійні:
Вадим Красноокий - лідер коллективу, вокал, гітара
Максим Красноокий - космобас, вокал
Володимир Зюмченко - ударні

Змінилися в Mad Heads -> Mad Heads XL:
Максим Кочетов - саксофон -> Богдан Гуменюк
Володимир Пушкар - тромбон -> Валерій Чесноков
Антон Бурико - труба -> Вадим Нікітан
Альбоми:
2005 - Надія є


01 - Смерека - 3:03
02 - Надія є - 4:37
03 - Дубки - 2:53
04 - Пісня світла - 3:41
05 - Цигани - 2:54
06 - Гроші - 4:53
07 - Річенька - 2:11
08 - Спека зимова - 3:56
09 - Gangster's days - 3:42
10 - Don't worry - 3:59
11 - Nadiya yea - 4:35
12 - Автобус буратін - 3:25
13 - Younger - 3:29
14 - Радіо Вавілон - 4:53
15 - Надія є (remix) - 3:57

Тривалість: 00:56:06
Мова: українська (01-08, 12, 14), англійська (09-11, 13), без тексту (14)
Видавець: Comp Music 2005
EAC Log
EAC extraction logfile from 9. January 2008, 15:22 for CD
Mad Heads / Надія є

Used drive : ASUS DVD-E616P Adapter: 0 ID: 0
Read mode : Secure with NO C2, accurate stream, disable cache
Read offset correction : 102
Overread into Lead-In and Lead-Out : No

Used output format : Internal WAV Routines
44.100 Hz; 16 Bit; Stereo

Other options :
Fill up missing offset samples with silence : Yes
Delete leading and trailing silent blocks : No
Native Win32 interface for Win NT & 2000

Range status and errors
Selected range
Filename E:\Music\ape\Mad Heads - Надія є.wav

Peak level 99.9 %
Range quality 99.9 %
CRC E6086203
Copy OK

No errors occured

End of status report
Audiochecker Log
AUDIOCHECKER v2.0 beta (build 457) - by Dester - [email protected]
~~~~~~~~~~~~~~~~~~~~~~~~~~~~~~~~~~
-=== НЕ РЕДАКТИРУЙТЕ ЭТОТ ФАЙЛ! ===-

Путь: ...\2005 - Надія є

01 -=- 01 - Смерека.wav -=- CDDA (100%)
02 -=- 02 - Надія є.wav -=- CDDA (100%)
03 -=- 03 - Дубки.wav -=- CDDA (100%)
04 -=- 04 - Пісня світла.wav -=- CDDA (100%)
05 -=- 05 - Цигани.wav -=- CDDA (100%)
06 -=- 06 - Гроші.wav -=- CDDA (100%)
07 -=- 07 - Річенька.wav -=- CDDA (100%)
08 -=- 08 - Спека зимова.wav -=- CDDA (100%)
09 -=- 09 - Gangster's days.wav -=- CDDA (100%)
10 -=- 10 - Don't worry.wav -=- CDDA (100%)
11 -=- 11 - Nadiya yea.wav -=- CDDA (99%)
12 -=- 12 - Автобус буратін.wav -=- CDDA (100%)
13 -=- 13 - Younger.wav -=- CDDA (100%)
14 -=- 14 - Радіо Вавілон.wav -=- CDDA (100%)
15 -=- 15 - Надія є (remix).wav -=- CDDA (100%)
16 -=- 2005 - Надія є.ape -=- CDDA (100%)

Сводка 99,94% CDDA

24517476
2008 - Forever


01 - Forever - 4:03
02 - Буває - 3:40
03 - Зірки знають - 3:53
04 - SCREENка - 2:58
05 - Пробки - 3:40
06 - А я на морі - 3:43
07 - Наступна зупинка Голлівуд - 3:51
08 - Шлях до неба - 4:19
09 - Дощ - 3:06
10 - Чи те того варте? - 3:37
11 - Найкраща мить - 4:31
12 - Добре - 3:44
13 - Амнезія - 3:50
14 - Зброя і квіти - 3:20

Тривалість: 00:52:17
Мова: українська
Видавець: Comp Music 2008
EAC Log
Exact Audio Copy V0.99 prebeta 4 from 23. January 2008

EAC extraction logfile from 18. July 2008, 11:43

Mad Heads XL / Forever

Used drive : HL-DT-STDVDRAM GSA-H10N Adapter: 1 ID: 1

Read mode : Secure
Utilize accurate stream : Yes
Defeat audio cache : Yes
Make use of C2 pointers : No

Read offset correction : 667
Overread into Lead-In and Lead-Out : No
Fill up missing offset samples with silence : Yes
Delete leading and trailing silent blocks : No
Null samples used in CRC calculations : Yes
Used interface : Installed external ASPI interface

Used output format : Internal WAV Routines
Sample format : 44.100 Hz; 16 Bit; Stereo

TOC of the extracted CD

Track | Start | Length | Start sector | End sector
---------------------------------------------------------
1 | 0:00.00 | 4:03.21 | 0 | 18245
2 | 4:03.21 | 3:40.31 | 18246 | 34776
3 | 7:43.52 | 3:53.14 | 34777 | 52265
4 | 11:36.66 | 2:58.10 | 52266 | 65625
5 | 14:35.01 | 3:39.47 | 65626 | 82097
6 | 18:14.48 | 3:43.23 | 82098 | 98845
7 | 21:57.71 | 3:51.16 | 98846 | 116186
8 | 25:49.12 | 4:19.23 | 116187 | 135634
9 | 30:08.35 | 3:05.60 | 135635 | 149569
10 | 33:14.20 | 3:37.31 | 149570 | 165875
11 | 36:51.51 | 4:31.21 | 165876 | 186221
12 | 41:22.72 | 3:43.69 | 186222 | 203015
13 | 45:06.66 | 3:49.65 | 203016 | 220255
14 | 48:56.56 | 3:19.69 | 220256 | 235249

Range status and errors

Selected range

Filename D:\Mad Heads XL - Forever.wav

Peak level 99.9 %
Range quality 100.0 %
Test CRC 4735910D
Copy CRC 4735910D
Copy OK

No errors occurred

End of status report
Audiochecker Log
AUDIOCHECKER v2.0 beta (build 457) - by Dester - [email protected]
~~~~~~~~~~~~~~~~~~~~~~~~~~~~~~~~~~
-=== НЕ РЕДАКТИРУЙТЕ ЭТОТ ФАЙЛ! ===-

Путь: ...\2008 - Forever

01 -=- 01 - Forever.wav -=- CDDA (100%)
02 -=- 02 - Буває.wav -=- CDDA (100%)
03 -=- 03 - Зірки знають.wav -=- MPEG (95%)
04 -=- 04 - SCREENка.wav -=- CDDA (100%)
05 -=- 05 - Пробки.wav -=- CDDA (100%)
06 -=- 06 - А я на морі.wav -=- CDDA (100%)
07 -=- 07 - Наступна зупинка Голлівуд.wav -=- CDDA (100%)
08 -=- 08 - Шлях до неба.wav -=- CDDA (100%)
09 -=- 09 - Дощ.wav -=- CDDA (100%)
10 -=- 10 - Чи те того варте.wav -=- CDDA (100%)
11 -=- 11 - Найкраща мить.wav -=- CDDA (100%)
12 -=- 12 - Добре.wav -=- CDDA (100%)
13 -=- 13 - Амнезія.wav -=- CDDA (100%)
14 -=- 14 - Зброя і квіти.wav -=- CDDA (99%)
15 -=- 2008 - Forever.ape -=- CDDA (100%)

Сводка 93,60% CDDA

58224500
2011 - УкраїнSKA


01 - Здибанка (інтро) - 1:51
02 - Вірно любила - 4:01
03 - Чорні очка - 4:07
04 - Ой, мамо, люблю Гриця - 2:55
05 - Вітер віє - 4:14
06 - Ішов козак потайком - 2:23
07 - Горілочка - 4:16
08 - Горіла сосна - 5:09
09 - Несе Галя воду - 4:02
10 - Тому коса добре косить - 3:47
11 - В вишневім садочку - 4:00
12 - Ой ходила дівчина бережком - 2:42
13 - Тече вода - 4:34
14 - Кришталеві чаші - 2:39
15 - Верховина - 3:59

Бонус:
16 - Смерека - 3:03
17 - Дубки - 2:53
18 - Річенька - 2:11
19 - Цигани - 2:54

Тривалість: 01:05:41
EAC Log
Exact Audio Copy V0.99 prebeta 5 from 4. May 2009

EAC extraction logfile from 4. May 2011, 21:32

Mad Heads XL / УкраїнSKA

Used drive : SONY DVD RW AW-G170A Adapter: 0 ID: 0

Read mode : Secure
Utilize accurate stream : Yes
Defeat audio cache : Yes
Make use of C2 pointers : No

Read offset correction : 48
Overread into Lead-In and Lead-Out : No
Fill up missing offset samples with silence : Yes
Delete leading and trailing silent blocks : No
Null samples used in CRC calculations : Yes
Used interface : Native Win32 interface for Win NT & 2000
Gap handling : Appended to previous track

Used output format : User Defined Encoder
Selected bitrate : 128 kBit/s
Quality : High
Add ID3 tag : No
Command line compressor : E:\Program Files\Exact Audio Copy\Flac\flac.exe
Additional command line options : -8 -V %s

TOC of the extracted CD

Track | Start | Length | Start sector | End sector
---------------------------------------------------------
1 | 0:00.00 | 1:50.71 | 0 | 8320
2 | 1:50.71 | 4:01.37 | 8321 | 26432
3 | 5:52.33 | 4:06.57 | 26433 | 44939
4 | 9:59.15 | 2:54.55 | 44940 | 58044
5 | 12:53.70 | 4:14.19 | 58045 | 77113
6 | 17:08.14 | 2:23.24 | 77114 | 87862
7 | 19:31.38 | 4:16.01 | 87863 | 107063
8 | 23:47.39 | 5:09.03 | 107064 | 130241
9 | 28:56.42 | 4:02.23 | 130242 | 148414
10 | 32:58.65 | 3:47.12 | 148415 | 165451
11 | 36:46.02 | 3:59.59 | 165452 | 183435
12 | 40:45.61 | 2:41.69 | 183436 | 195579
13 | 43:27.55 | 4:33.59 | 195580 | 216113
14 | 48:01.39 | 2:39.27 | 216114 | 228065
15 | 50:40.66 | 3:59.37 | 228066 | 246027
16 | 54:40.28 | 3:03.01 | 246028 | 259753
17 | 57:43.29 | 2:52.60 | 259754 | 272713
18 | 60:36.14 | 2:11.23 | 272714 | 282561
19 | 62:47.37 | 2:53.45 | 282562 | 295581

Track 1

Filename I:\LOSSLESS\Mad Heads\2011 - УкраїнSKA\01. Mad Heads XL - Здибанка (інтро).wav

Pre-gap length 0:00:02.00

Peak level 100.0 %
Track quality 100.0 %
Test CRC C8F80A8F
Copy CRC C8F80A8F
Track not present in AccurateRip database
Copy OK

Track 2

Filename I:\LOSSLESS\Mad Heads\2011 - УкраїнSKA\02. Mad Heads XL - Вірно любила.wav

Peak level 100.0 %
Track quality 100.0 %
Test CRC FC3726E4
Copy CRC FC3726E4
Track not present in AccurateRip database
Copy OK

Track 3

Filename I:\LOSSLESS\Mad Heads\2011 - УкраїнSKA\03. Mad Heads XL - Чорні очка.wav

Peak level 100.0 %
Track quality 100.0 %
Test CRC 34D7E21C
Copy CRC 34D7E21C
Track not present in AccurateRip database
Copy OK

Track 4

Filename I:\LOSSLESS\Mad Heads\2011 - УкраїнSKA\04. Mad Heads XL - Ой, мамо, люблю Гриця.wav

Peak level 100.0 %
Track quality 100.0 %
Test CRC E0196F81
Copy CRC E0196F81
Track not present in AccurateRip database
Copy OK

Track 5

Filename I:\LOSSLESS\Mad Heads\2011 - УкраїнSKA\05. Mad Heads XL - Вітер віє.wav

Peak level 100.0 %
Track quality 100.0 %
Test CRC CEC79F64
Copy CRC CEC79F64
Track not present in AccurateRip database
Copy OK

Track 6

Filename I:\LOSSLESS\Mad Heads\2011 - УкраїнSKA\06. Mad Heads XL - Ішов козак потайком.wav

Peak level 100.0 %
Track quality 100.0 %
Test CRC DE014F20
Copy CRC DE014F20
Track not present in AccurateRip database
Copy OK

Track 7

Filename I:\LOSSLESS\Mad Heads\2011 - УкраїнSKA\07. Mad Heads XL - Горілочка.wav

Peak level 100.0 %
Track quality 99.9 %
Test CRC 1A4C0D6D
Copy CRC 1A4C0D6D
Track not present in AccurateRip database
Copy OK

Track 8

Filename I:\LOSSLESS\Mad Heads\2011 - УкраїнSKA\08. Mad Heads XL - Горіла сосна.wav

Peak level 100.0 %
Track quality 100.0 %
Test CRC F790B1B6
Copy CRC F790B1B6
Track not present in AccurateRip database
Copy OK

Track 9

Filename I:\LOSSLESS\Mad Heads\2011 - УкраїнSKA\09. Mad Heads XL - Несе Галя воду.wav

Peak level 100.0 %
Track quality 100.0 %
Test CRC 4F6C8547
Copy CRC 4F6C8547
Track not present in AccurateRip database
Copy OK

Track 10

Filename I:\LOSSLESS\Mad Heads\2011 - УкраїнSKA\10. Mad Heads XL - Тому коса добре косить.wav

Peak level 100.0 %
Track quality 100.0 %
Test CRC CE1DC62B
Copy CRC CE1DC62B
Track not present in AccurateRip database
Copy OK

Track 11

Filename I:\LOSSLESS\Mad Heads\2011 - УкраїнSKA\11. Mad Heads XL - В вишневім садочку.wav

Peak level 100.0 %
Track quality 100.0 %
Test CRC F6D6CD9C
Copy CRC F6D6CD9C
Track not present in AccurateRip database
Copy OK

Track 12

Filename I:\LOSSLESS\Mad Heads\2011 - УкраїнSKA\12. Mad Heads XL - Ой ходила дівчина бережком.wav

Peak level 100.0 %
Track quality 100.0 %
Test CRC 0EDCF83C
Copy CRC 0EDCF83C
Track not present in AccurateRip database
Copy OK

Track 13

Filename I:\LOSSLESS\Mad Heads\2011 - УкраїнSKA\13. Mad Heads XL - Тече вода.wav

Peak level 100.0 %
Track quality 100.0 %
Test CRC CC87BAE8
Copy CRC CC87BAE8
Track not present in AccurateRip database
Copy OK

Track 14

Filename I:\LOSSLESS\Mad Heads\2011 - УкраїнSKA\14. Mad Heads XL - Кришталеві чаші.wav

Peak level 100.0 %
Track quality 100.0 %
Test CRC CD3E5C1F
Copy CRC CD3E5C1F
Track not present in AccurateRip database
Copy OK

Track 15

Filename I:\LOSSLESS\Mad Heads\2011 - УкраїнSKA\15. Mad Heads XL - Верховина.wav

Peak level 100.0 %
Track quality 100.0 %
Test CRC 3C85EC5F
Copy CRC 3C85EC5F
Track not present in AccurateRip database
Copy OK

Track 16

Filename I:\LOSSLESS\Mad Heads\2011 - УкраїнSKA\16. Mad Heads XL - Смерека.wav

Peak level 99.9 %
Track quality 100.0 %
Test CRC DAE97E56
Copy CRC DAE97E56
Track not present in AccurateRip database
Copy OK

Track 17

Filename I:\LOSSLESS\Mad Heads\2011 - УкраїнSKA\17. Mad Heads XL - Дубки.wav

Peak level 99.9 %
Track quality 100.0 %
Test CRC 9AE76433
Copy CRC 9AE76433
Track not present in AccurateRip database
Copy OK

Track 18

Filename I:\LOSSLESS\Mad Heads\2011 - УкраїнSKA\18. Mad Heads XL - Річенька.wav

Peak level 94.7 %
Track quality 100.0 %
Test CRC C5A276E8
Copy CRC C5A276E8
Track not present in AccurateRip database
Copy OK

Track 19

Filename I:\LOSSLESS\Mad Heads\2011 - УкраїнSKA\19. Mad Heads XL - Цигани.wav

Peak level 94.8 %
Track quality 100.0 %
Test CRC 53627531
Copy CRC 53627531
Track not present in AccurateRip database
Copy OK

None of the tracks are present in the AccurateRip database

No errors occurred

End of status report
Audiochecker Log
AUDIOCHECKER v2.0 beta (build 457) - by Dester - [email protected]
~~~~~~~~~~~~~~~~~~~~~~~~~~~~~~~~~~
-=== DO NOT EDIT THIS FILE! ===-

Path: ...\2011 - УкраїнSKA

01 -=- 01 - Здибанка (інтро).flac -=- CDDA (100%)
02 -=- 02 - Вірно любила.flac -=- CDDA (100%)
03 -=- 03 - Чорні очка.flac -=- CDDA (100%)
04 -=- 04 - Ой, мамо, люблю Гриця.flac -=- CDDA (100%)
05 -=- 05 - Вітер віє.flac -=- CDDA (100%)
06 -=- 06 - Ішов козак потайком.flac -=- CDDA (100%)
07 -=- 07 - Горілочка.flac -=- CDDA (100%)
08 -=- 08 - Горіла сосна.flac -=- CDDA (100%)
09 -=- 09 - Несе Галя воду.flac -=- CDDA (100%)
10 -=- 10 - Тому коса добре косить.flac -=- CDDA (100%)
11 -=- 11 - В вишневім садочку.flac -=- CDDA (100%)
12 -=- 12 - Ой ходила дівчина бережком.flac -=- CDDA (100%)
13 -=- 13 - Тече вода.flac -=- CDDA (100%)
14 -=- 14 - Кришталеві чаші.flac -=- CDDA (100%)
15 -=- 15 - Верховина.flac -=- CDDA (100%)
16 -=- 16 - Смерека.flac -=- CDDA (100%)
17 -=- 17 - Дубки.flac -=- CDDA (100%)
18 -=- 18 - Річенька.flac -=- CDDA (100%)
19 -=- 19 - Цигани.flac -=- CDDA (100%)

Summary 100,00% CDDA

99806436
Тривалість: 02:54:04
Мова: українська, англійська
Аудіо-кодек: APE, FLAC
Ріп: image+ Embedded CUE/EAC/audiochecker/cover), FLAC tracks (2011)
EAC: Secure + Accurate stream + disable cache/C2 + Read offset correction
Бітрейт: lossless (~927-970 кбіт/с)
ЗАСТЕРЕЖЕННЯ ЩОДО ФОРМАТУ

В роздачі використано формат вбудованих (embedded) файлів в теги контейнера APE.
Вбудовано:
1. Трекліст CUE-sheet (автоматично відкривається в плеєрах що підтримують embedded)
2. cover.jpg (відображається в плеєрах що підтримують embedded)
3. EAC Log (видно в редакторі тегів)
4. Audiochecker log (видно в редакторі тегів)

За рахунок цього на кожен альбом зменшилась кількість файлів з 5 до 1 (крім папки Covers якщо є), а *.ape файл несе повну інформацію в собі і може зручно роздаватися в інших протоколах (FTP, eMule, DC++)

Прохання відписатися щодо такого формату подачі Losless. Якщо він влаштовує - надалі роздачі буду робити в такому форматі.
Mad Heads | Дискографія [4 альбоми] (1996-2003) [APE] | Rockabilly/Ska-Punk

Додаткова інформація:
Mad Heads XL
Група Mad Heads XL утворилася в лютому 2004 року на базі відомого українського тріо Mad Heads. До гітари, контрабасу та барабанів додалася потужна духова секція, до шаленого рок-н-рольного драйву – нові музичні фарби, серед яких найбільш помітно виділялися ска та регі, з’явилися також елементи українського фолку.
Без сумніву, саме це й зробило новостворений гурт популярним ще до того, як на телеекранах з’явився перший відео кліп.
Життєва позиція Mad Heads XL вперше була викладена у пісні "Надія є", яка стала одним з найбільших українських хітів 2005 року. Слідом за "Надією…" Mad Heads XL запропонували слухачам ще кілька життєствердних пісень, яким судилося стати улюбленими. Власні "Пісня світла" та "Автобус Буратін", а також своє бачення відомих речей "Смерека" та "Розслабся не парся"("Don’t worry be happy"). Ці та інші композиції склали альбом "Надія є", який компанія Comp Music / EMI видала в Україні у жовтні 2005 року. У червні 2006 альбом з’явився на лейблах EMI у східній Європі – в Росії, Чехії, Словаччині, Угорщині та країнах Балтії. MHXL відвідали деякі з цих країн із концертами, успішність яких показала, що команда може бути цікавою не лише для українців.
Ще у 2005 році група вперше представила Україну на найбільшому чеському рок фестивалі ROCK FOR PEOPLE, і настільки сподобалася, що була повторно запрошена на наступний рік. А у 2006 Mad Heads XL, окрім Чехії, відвідали також Угорщину і стали першим українським гуртом, що виступав на одній з головних сцен фестивалю SZIGET, одного з найбільших в Європі. Серед інших яскравих моментів 2006 року – участь у створенні футбольного гімну "Україно, вперед!" для виступу національної збірної на Чемпіонаті Світу, саундтреки до кінофільму "Прорвемось" та телесеріалу "Давай одружимось?", участь у створенні української версії нашумівшого датського мультфільму "Теркель і Халепа"...
2007 рік Mad Heads XL розпочали в роботі над наступним альбомом, перші 2 пісні з якого були оприлюднені задовго до появи самого диску. Балада "Найкраща мить" з’явилася навесні, її можна впевнено назвати найліричнішою з пісень групи. А кліп до неї – наймальовничіше відео, перший з українських кліпів, знятий у Празі. Пісня про справжню і вічну любов закохала в себе українські радіостанції – вперше MHXL опинилися на 7 місці національного радіо чарту. Але наступний сингл "А я на морі", що вийшов, звичайно ж, влітку – побив і цей рекорд, посівши найвищу сходинку чарту. Вперше в історії гурту, MHXL мали пісню, що звучала в українському радіо просторі частіше за будь-яку іншу. Тим часом компанія Comp Music / EMI до 15-річчя Mad Heads видала збірку кращих хітів та балад "Найкраща мить". Група також продовжувала потрапляти до саундтреків: у фільмі Сергія Лисенко "7 днів до весілля" музиканти зіграли самих себе, виконавши пісню "Дубки" з альбому "Надія є", а звукова доріжка фільму Ахтема Сеітаблаєва "Фабрика щастя" була повністю оформлена музикою групи.
За час свого існування група зазнала кілька змін у складі. Вона була започаткована учасниками MAD HEADS: Вадим Красноокий – вокал, гітара; Максим Красноокий – космобас; Богдан Очеретяний – барабани; та новоприбулою духовою секцією у складі: Максим Кочетов – саксофон; Антон Бурико – труба, Володимир Пушкар – тромбон. До кінця 2004 року в групі з’явився новий трубач Вадим Нікітан та новий хлопець із тромбоном Валерій Чесноков. Влітку 2005 року, закінчивши свою частку студійної роботи над новим альбомом, вирішив залишити команду барабанщик Богдан Очеретяний. На його місце прийшов Володимир Зюмченко. Восени 2006 року саксофоніст Макс Кочетов разом із власною родиною перебрався на постійне місце проживання до Сербії, йому на зміну до групи був запрошений Богдан Гуменюк.
ОНОВЛЕНО 09.07.2011

Додано альбом "2011 - УкраїнSKA"
Джерело Psichoboy (rutracker.org)


Золотий реліз (завантажене не впливає на рейтинг)
 Трекер:    Зареєстрований   

Завантажити / скачати українську музику



відео для новачків



 Зареєстрований:   2011-07-09 01:53
 Розмір:   1.21 GB 
 Оцінка музики:   9.9/10 (Голосів: 23)
   
jinotot 
Почесний оцифрувальник літератури


З нами з: 28.01.09
Востаннє: 04.12.16
Повідомлень: 3235

2009-10-06 13:25  
plyrvt, цю тему видалити?
А навіщо створював нову? Можна ж перенести з одного розділу в інший (в нижньому лівому кутку сторінки є кнопка для цього).

bot 
робот


З нами з: 30.09.07
Востаннє: 26.05.05
Повідомлень: 15989

2009-10-06 13:27  
Тему перенесено з Поп, естрада до форуму Рок, Метал, Альтернатива, Панк, СКА


plyrvt

jinotot 
Почесний оцифрувальник літератури


З нами з: 28.01.09
Востаннє: 04.12.16
Повідомлень: 3235

2009-10-06 13:28  
ой! я завтикав, що то різні гурти Happy втрачаю пильність -- даруй!
Але розділ цій темі все-таки варто змінити, хіба нє?

Додано через 37 секунд:

угу, вже бачу -- переніс, дякую!

plyrvt 
VIP


З нами з: 03.12.08
Востаннє: 03.12.16
Повідомлень: 398

2009-10-06 13:29  
Ото в нас модератори - гарячі як жидівський борщ. Дайте ж хоч 10 хв перевірити чи все ґаразд.
jinotot 
Почесний оцифрувальник літератури


З нами з: 28.01.09
Востаннє: 04.12.16
Повідомлень: 3235

2009-10-06 15:48  
plyrvt написано:
Ото в нас модератори - гарячі як жидівський борщ. Дайте ж хоч 10 хв перевірити чи все ґаразд.
Це комплімент чи образа? Wide grin
Я ж навпаки стараюсь підказати, що не так, поки релізер онлайн і зможе оперативно підправити оформлення Happy
Але, якщо вже так сильно відволікає чи напружує, то можу урочисто пообіцяти перевіряти релізи не раніше, ніж через дві години після їхньої появи Happy
Можу й пізніше Happy
А загалом я роблю зауваження не тому, що дуже хочу до когось придовбатися чи отримую насолоду від виявлених неточностей/помилок, а тому, що прагну допомогти і хоч чимось бути корисним Happy
Тож прошу на мої підказки також не ображатися Wink (1)

Anna_Smile 
Модератор серіалів


З нами з: 05.09.09
Востаннє: 09.04.15
Повідомлень: 642

2009-10-21 19:49  
я готова розцілувати релізера за надану музику!!!!
В Е Л И Ч Е З Н Е Д Я К У Ю ! ! !
хоч я давно маю колекцію пісень цього гурту-зате охоче долучусь до роздачі
СУПЕР!!!
Mad Heads XL НАЙКРАЩІ!!!

bliznyk 
Новенький


З нами з: 06.11.09
Востаннє: 08.02.10
Повідомлень: 3

2009-11-08 22:19  
а чому cue файлів немає???
plyrvt 
VIP


З нами з: 03.12.08
Востаннє: 03.12.16
Повідомлень: 398

2009-11-08 22:21  
bliznyk в описі релізу є пояснення
bliznyk 
Новенький


З нами з: 06.11.09
Востаннє: 08.02.10
Повідомлень: 3

2009-11-08 23:04  
plyrvt дякую! Побачив! І ще дякую за роздачу!
Залишаюсь на роздачі!

bogdan8249 
Відео Гуртом - фільмокрай
Відео Гуртом - фільмокрай


З нами з: 09.08.08
Востаннє: 04.12.16
Повідомлень: 1112

2010-01-04 18:07  
Бракує одного альбому
2007 - Найкраща мить

plyrvt 
VIP


З нами з: 03.12.08
Востаннє: 03.12.16
Повідомлень: 398

2010-01-04 18:14  
Так, не вистачає збірки "2007 Найкраща мить. Кращі хіти та балади", в ній була одна нова пісня "Найкраща мить", яка увійшла в альбом "2008 - Forever"
vas-2007 
Новенький


З нами з: 23.02.11
Востаннє: 04.09.12
Повідомлень: 1

2011-03-17 23:02  
Це просто свято... Дякую за чудову роздачу!
plyrvt 
VIP


З нами з: 03.12.08
Востаннє: 03.12.16
Повідомлень: 398

2011-07-09 01:54  
ОНОВЛЕНО 09.07.2011

Додано альбом "2011 - УкраїнSKA"
Джерело Psichoboy (rutracker.org)

ssTAss 
Модератор музики


З нами з: 05.07.08
Востаннє: 05.12.16
Повідомлень: 10939

2011-07-09 23:57  
plyrvt написано:

Додано альбом "2011 - УкраїнSKA"

Джерело Psichoboy (rutracker.org)

для чого було з рутрекера брати? він в нас теж був нормально ріпнутий
http://toloka.to/t24658

plyrvt 
VIP


З нами з: 03.12.08
Востаннє: 03.12.16
Повідомлень: 398

2011-07-10 17:02  
Джерело зазвичай визначаю так: CRC ввожу в гугл і дивлюся де найстаріша дата релізу. Те що в нас інший реліз просто не зауважив.
Та й якби помітив, все рівно з двох взяв би цей, бо в нашому не виставлений офсет привода

okhvat 
Новенький


З нами з: 03.03.10
Востаннє: 28.11.16
Повідомлень: 10

2011-08-04 13:50  
Якщо хтось має даний реліз, встаньте на роздачу, буду вдячний.
Aqbf 
Свій


З нами з: 29.01.16
Востаннє: 05.12.16
Повідомлень: 63

2016-09-09 11:12  
Приєднайтеся до роздачі , будь ласка .
Ваш часовий пояс: GMT + 2 Години

Нова тема   Відповісти