Завантажити та скачати торренти українською


Білосніжка та мисливець [Розширена версія] / Snow White and the Huntsman [Extended Cut] (2012) 1080p Ukr/Eng | Sub Ukr/Eng

Нові коментарі

Нова тема   Відповісти
Автор Повідомлення
Demrandir 
Свій


З нами з: 12.10.13
Востаннє: 10.12.16
Повідомлень: 57

2016-11-19 17:18  
Білосніжка та мисливець [Розширена версія] / Snow White and the Huntsman [Extended Cut] (2012) 1080p Ukr/Eng | Sub Ukr/Eng

Білосніжка та мисливець [Розширена версія] / Snow White and the Huntsman [Extended Cut] (2012) 1080p Ukr/Eng | Sub Ukr/Eng


Жанр: фентезі, драма, пригодницький, екшн
Країна: США



Кінокомпанія: Roth Films, Universal Pictures
Режисер: Руперт Сандерс / Rupert Sanders
Актори: Крістен Стюарт / Kristen Stewart, Кріс Хемсворт / Chris Hemsworth, Шарліз Терон / Charlize Theron, Сем Клафлін / Sam Claflin, Сем Спрюлл / Sam Spruell, Йен МакШейн / Ian McShane, Боб Хоскінс / Bob Hoskins, Рей Уїнстон / Ray Winstone, Hік Фрост / Nick Frost, Едді Марсан / Eddie Marsan, Тобі Джонс / Toby Jones, Джонні Харріс / Johnny Harris, Брайан Глісон / Brian Gleeson, Вінсент Ріган / Vincent Regan, Ноа Хантлі / Noah Huntley

Сюжет:
Темрява наближається. Вона ховається в лісах, спускається з гір, застеляє небо. Ніхто не сховається від магічного дзеркала Королеви, що живе в неприступному замку, який охороняється незліченою армією. Але над Білосніжкою злі чари не владні. І тоді Королева відправляє Мисливця, щоб він приніс їй серце суперниці. Але зачарований Білосніжкою, він стає на її бік. Гряде велика битва. Лише одна буде правити.


Тривалість: 02:11:33 (порівняння з театральною версією)
Якість: 1080p
Відео:
кодек:
розмір кадру: 1920 х 816
бітрейт: 13800 кб/с

Аудіо # 1:
мова: українська
переклад: професійний дубльований з вставками оригіналу
кодек: 5.1
бітрейт: 448 кб/с
Інформація про дубляж

Фільм надано компанією UIP, дубльовано LeDoyen Studio на замовлення компанії B&H Film Distribution
Переклад: Сергія Ковальчука
Переклад пісень: Романа Дяченка
Музичний редактор: Тетяна Піроженко
Режисер дубляжу: Анна Пащенко
Звукорежисер: Михайло Угрин
Координатор дубляжу: Ольга Боєва
Ролі дублювали: Крістін Стюарт/Білосніжка — Юлія Шаповал, Кріс Гемсворт/Мисливець — Дмитро Гаврилов, Шарліз Терон/Равен — Наталя Ярошенко, Андрій Самінін, Сем Клефлін/Вільям — Андрій Федінчик, Михайло Кришталь, Василь Мазур, Володимир Терещук, Михайло Войчук, Олександр Ігнатуша, Юрій Гребельник, Борис Георгієвський, Боб Госкінс — Анатолій Барчук та інші.
Аудіо # 2:
мова: англійська
переклад: оригінал
кодек: 5.1
бітрейт: 1509 кб/с

Аудіо # 3:
мова: англійська
переклад: оригінал (Commentary with Director Rupert Sanders, Visual Effects Supervisor Cedric Nicolas-Troyan and Co-Editor Neil Smith)
кодек: 2.0
бітрейт: 192 кб/с

Джерело озвучення:


Субтитри # 1:
мова: українська (форсовані - на розширені моменти)
тип: програмні (м'які)
формат: *.srt

Субтитри # 2 - 3:
мова: англійська (full, SDH)
тип: програмні (м'які)
формат: *.srt
MediaInfo
General
Unique ID : 183334532863324209001779970108714150350 (0x89ECF258D867B3B596482847B55869CE)
Complete name : F:\Snow.White.And.The.Huntsman.[Extended.Cut].2012.BDrip1080p.Ukr.by.Demrandir.mkv
Format : Matroska
Format version : Version 4 / Version 2
File size : 14.7 GiB
Duration : 2h 11mn
Overall bit rate : 15.9 Mbps
Movie name : Snow White and the Huntsman (2012) [Extended Version] - Release for HDCLUB
Encoded date : UTC 2016-11-18 15:03:27
Writing application : mkvmerge v9.5.0 ('Quiet Fire') 64bit
Writing library : libebml v1.3.4 + libmatroska v1.4.5

Video
ID : 1
Format : AVC
Format/Info : Advanced Video Codec
Format profile : [email protected]
Format settings, CABAC : Yes
Format settings, ReFrames : 5 frames
Codec ID : V_MPEG4/ISO/AVC
Duration : 2h 11mn
Bit rate : 13.8 Mbps
Width : 1 920 pixels
Height : 816 pixels
Display aspect ratio : 2.35:1
Frame rate mode : Constant
Frame rate : 23.976 (24000/1001) fps
Color space : YUV
Chroma subsampling : 4:2:0
Bit depth : 8 bits
Scan type : Progressive
Bits/(Pixel*Frame) : 0.367
Stream size : 12.7 GiB (87%)
Title : Snow White and the Huntsman (2012) Extended cut
Writing library : core 125 r2208 d9d2288
Encoding settings : cabac=1 / ref=5 / deblock=1:-3:-3 / analyse=0x3:0x113 / me=umh / subme=11 / psy=1 / psy_rd=1.10:0.00 / mixed_ref=1 / me_range=48 / chroma_me=1 / trellis=2 / 8x8dct=1 / cqm=0 / deadzone=21,11 / fast_pskip=0 / chroma_qp_offset=-2 / threads=18 / lookahead_threads=3 / sliced_threads=0 / nr=0 / decimate=0 / interlaced=0 / bluray_compat=0 / constrained_intra=0 / bframes=8 / b_pyramid=2 / b_adapt=2 / b_bias=0 / direct=3 / weightb=1 / open_gop=0 / weightp=2 / keyint=240 / keyint_min=24 / scenecut=40 / intra_refresh=0 / rc_lookahead=240 / rc=2pass / mbtree=1 / bitrate=13800 / ratetol=1.0 / qcomp=0.70 / qpmin=0 / qpmax=69 / qpstep=4 / cplxblur=20.0 / qblur=0.5 / ip_ratio=1.20 / aq=2:1.10
Language : English
Default : Yes
Forced : No

Audio #1
ID : 2
Format : AC-3
Format/Info : Audio Coding 3
Mode extension : CM (complete main)
Format settings, Endianness : Big
Codec ID : A_AC3
Duration : 2h 11mn
Bit rate mode : Constant
Bit rate : 448 Kbps
Channel(s) : 6 channels
Channel positions : Front: L C R, Side: L R, LFE
Sampling rate : 48.0 KHz
Frame rate : 31.250 fps (1536 spf)
Compression mode : Lossy
Stream size : 422 MiB (3%)
Title : Ukrainian
Language : Ukrainian
Default : Yes
Forced : Yes

Audio #2
ID : 3
Format :
Format/Info : Digital Theater Systems
Mode : 16
Format settings, Endianness : Big
Codec ID : A_DTS
Duration : 2h 11mn
Bit rate mode : Constant
Bit rate : 1 509 Kbps
Channel(s) : 6 channels
Channel positions : Front: L C R, Side: L R, LFE
Sampling rate : 48.0 KHz
Frame rate : 93.750 fps (512 spf)
Bit depth : 24 bits
Compression mode : Lossy
Delay relative to video : 11ms
Stream size : 1.39 GiB (9%)
Title : Original 5.1 1536 kbps
Language : English
Default : No
Forced : No

Audio #3
ID : 4
Format : AC-3
Format/Info : Audio Coding 3
Format profile : Dolby Digital
Mode extension : CM (complete main)
Format settings, Endianness : Big
Codec ID : A_AC3
Duration : 2h 11mn
Bit rate mode : Constant
Bit rate : 192 Kbps
Channel(s) : 2 channels
Channel positions : Front: L R
Sampling rate : 48.0 KHz
Frame rate : 31.250 fps (1536 spf)
Compression mode : Lossy
Stream size : 181 MiB (1%)
Title : Commentary with Director Rupert Sanders, Visual Effects Supervisor Cedric Nicolas-Troyan and Co-Editor Neil Smith 2.0 192 kbps
Language : English
Default : No
Forced : No

Text #1
ID : 5
Format : UTF-8
Codec ID : S_TEXT/UTF8
Codec ID/Info : UTF-8 Plain Text
Duration : 1h 49mn
Bit rate : 2 bps
Count of elements : 41
Stream size : 1.91 KiB (0%)
Title : Ukrainian forced
Language : Ukrainian
Default : Yes
Forced : Yes

Text #2
ID : 6
Format : UTF-8
Codec ID : S_TEXT/UTF8
Codec ID/Info : UTF-8 Plain Text
Duration : 1h 59mn
Bit rate : 26 bps
Count of elements : 917
Stream size : 23.5 KiB (0%)
Title : Original
Language : English
Default : No
Forced : No

Text #3
ID : 7
Format : UTF-8
Codec ID : S_TEXT/UTF8
Codec ID/Info : UTF-8 Plain Text
Duration : 2h 1mn
Bit rate : 29 bps
Count of elements : 1058
Stream size : 25.9 KiB (0%)
Title : SDH
Language : English
Default : No
Forced : No

Menu
00:00:00.000 : en:00:00:00.000
00:05:05.055 : en:00:05:05.055
00:10:26.793 : en:00:10:26.793
00:19:48.854 : en:00:19:48.854
00:27:46.456 : en:00:27:46.456
00:32:40.458 : en:00:32:40.458
00:38:04.490 : en:00:38:04.490
00:44:02.098 : en:00:44:02.098
00:51:08.649 : en:00:51:08.649
00:58:17.869 : en:00:58:17.869
01:02:08.558 : en:01:02:08.558
01:08:57.967 : en:01:08:57.967
01:13:36.537 : en:01:13:36.537
01:16:59.073 : en:01:16:59.073
01:26:57.003 : en:01:26:57.003
01:36:30.993 : en:01:36:30.993
01:43:37.795 : en:01:43:37.795
01:49:51.460 : en:01:49:51.460
01:53:44.734 : en:01:53:44.734
02:01:50.094 : en:02:01:50.094
Скріншоти







Зауваження: Аудіодоріжки синхронізував сам (доріжку з українським дубляжем від театральної версії та оригінальну від розширеної версії). На місця без перекладу форсовані субтитри. Сам робив переклад фрагментів розширеної версії.

Окремо українську аудіодоріжку та субтитри можна завантажити тут

Джерело: &
Особиста оцінка: 8 - мені сподобалося


 Трекер:    Зареєстрований   

Завантажити / скачати фільм українською



відео для новачків



 Зареєстрований:   2016-11-19 17:18
 Розмір:   14.65 GB 
 Оцінка фільму:   9.8/10 (Голосів: 4)
   
Bruce_Nolan 
Свій


З нами з: 17.06.14
Востаннє: 08.12.16
Повідомлень: 120

2016-11-26 20:02  
Дякую та чи буде до нового фільму Extended? Тобто передісторія цього?
Demrandir 
Свій


З нами з: 12.10.13
Востаннє: 10.12.16
Повідомлень: 57

2016-11-26 22:13  
Bruce_Nolan написано:
Дякую та чи буде до нового фільму Extended? Тобто передісторія цього?


Так, я вже займаюся звуком до розширеної версії фільму "Мисливець і Снігова королева".

Ваш часовий пояс: GMT + 2 Години

Нова тема   Відповісти