Завантажити та скачати торренти українською


Ціль / The Target / 표적 / Pyojeok (2014) 720p Kor | sub Ukr

Нові коментарі

Нова тема   Відповісти
Автор Повідомлення
vitexdp 
Новенький


З нами з: 09.07.14
Востаннє: 09.12.16
Повідомлень: 21

2016-11-19 00:55  
Ціль / The Target / 표적 / Pyojeok (2014) 720p Kor | sub Ukr

Ціль / The Target / 표적 / Pyojeok (2014) 720p Kor | sub Ukr


Жанр: екшн, трилер
Країна: Південна Корея



Кінокомпанія: Barunson Yong Film
Режисер: Юн Хон Син
Актори: Син Рен Рю, Чжін Ук Лі, Чжун Сан Ю, Є Чжон Чо, Сон Рен Кім, Ин Джі Чо, Чжін Гу, Рехеі Отані, Де Мен Кім

Сюжет:
Головними героями фільму є колишній найманець і лікар, у якого викрали дружину. Намагаючись врятувати дружину лікаря, вони разом протистоять "брудним копам" і борються за власне життя.


Тривалість: 01:38:24
Якість:
Відео:
кодек:
розмір кадру: 1280x720
бітрейт: 1 626 kbps

Аудіо:
мова: корейська
переклад: оригінал
кодек: 2.0
бітрейт: 192 kbps

Субтитри:
мова: українська
тип: вбудовані (жорсткі)
Скріншоти




Mediainfo

General
Complete name : The.Target.2014 [Ukr Sub].avi
Format : AVI
Format/Info : Audio Video Interleave
File size : 1.26 GiB
Duration : 1 h 38 min
Overall bit rate : 1 829 kb/s
Writing library : VirtualDub build 35491/release

Video
ID : 0
Format : MPEG-4 Visual
Format profile : Advanced [email protected]
Format settings, BVOP : 2
Format settings, QPel : No
Format settings, GMC : No warppoints
Format settings, Matrix : Default (H.263)
Muxing mode : Packed bitstream
Codec ID :
Codec ID/Hint :
Duration : 1 h 38 min
Bit rate : 1 626 kb/s
Width : 1 280 pixels
Height : 720 pixels
Display aspect ratio : 16:9
Frame rate : 23.976 (23976/1000) FPS
Color space : YUV
Chroma subsampling : 4:2:0
Bit depth : 8 bits
Scan type : Progressive
Compression mode : Lossy
Bits/(Pixel*Frame) : 0.074
Stream size : 1.12 GiB (89%)
Writing library : 64

Audio
ID : 1
Format :
Format/Info : Advanced Audio Codec
Format profile : LC
Codec ID : FF
Duration : 1 h 38 min
Bit rate : 192 kb/s
Channel(s) : 2 channels
Channel positions : Front: L R
Sampling rate : 44.1 kHz
Frame rate : 43.066 FPS (1024 spf)
Compression mode : Lossy
Stream size : 133 MiB (10%)
Alignment : Split accross interleaves
Interleave, duration : 23 ms (0.56 video frame)
Interleave, preload duration : 510 ms
Джерело: U&A, переклад MD


Авторський реліз (завантажувати можна без реєстрації)
 Трекер:    Зареєстрований   

Завантажити / скачати фільм українською



відео для новачків



 Зареєстрований:   2016-11-19 00:55
 Розмір:   1.26 GB 
 Оцінка фільму:   10/10 (Голосів: 1)
   
11FrYkT 
Модератор відео


З нами з: 20.02.11
Востаннє: 09.12.16
Повідомлень: 3133

2016-11-19 08:30  
vitexdp написано:

розмір кадру: 1280x736

Аудіо:
мова: корейська
переклад: оригінал
кодек: 2.0
бітрейт: 189 kbps

є питання щодо цих параметрів, киньте медіаінфо+вкажіть бітрейт відео

вкажіть джерело субтитрів

11FrYkT 
Модератор відео


З нами з: 20.02.11
Востаннє: 09.12.16
Повідомлень: 3133

2016-11-20 08:03  
vitexdp написано:
розмір кадру: 1280x720

У Вас скріни 1280 х 736, виправте їх будь ласка

vitexdp 
Новенький


З нами з: 09.07.14
Востаннє: 09.12.16
Повідомлень: 21

2016-11-20 22:25  
виправлено
Konfucius 
Управління
Управління


З нами з: 30.09.07
Востаннє: 09.12.16
Повідомлень: 4744

2016-11-21 03:35  
vitexdp написано:
Yoon Hong-seung
Ryu Seung-ryong, Lee Jin-wook, Yoo Jun-sang, Kim Sung-ryung

Це має бути українською.

Ваш часовий пояс: GMT + 2 Години

Нова тема   Відповісти