Завантажити та скачати торренти українською


Під піском / Моя земля / Land of Mine / Under sandet (2015) 1080p Eng/Ger/Dan | sub Ukr

Нові коментарі

Нова тема   Відповісти
Автор Повідомлення
TroSer 
Поважний учасник


З нами з: 11.09.13
Востаннє: 09.12.16
Повідомлень: 242

2016-11-16 23:32  
Під піском / Моя земля / Land of Mine / Under sandet (2015) 1080p Eng/Ger/Dan | sub Ukr

Під піском / Моя земля / Land of Mine / Under sandet (2015) 1080p Eng/Ger/Dan | sub Ukr


Жанр: драма, історичний
Країна: Данія, Німеччина



Кінокомпанія: Nordisk Film, Amusement Park Films та ін.
Режисер: Мартін Зандвліет (Martin Zandvliet)
Актори: Роланд Мьоллер (Roland Møller), Луїс Гофманн (Louis Hofmann), Йоель Басман (Joel Basman), Міккель Бое Фьольсгор (Mikkel Boe Følsgaard) та ін.

Сюжет:
Після закінчення Другої світової війни, данська влада примусила тисячі німецьких військовополонених знешкоджувати мільйони мін, що були закопані на узбережжі Данії.

Група німецьких юнаків-полонених потрапляє на одну з таких ділянок, і змушена викопати 46 тисяч мін голими руками.


Тривалість: 01:36:43
Якість: 1080p
Відео:
кодек:
розмір кадру: 1916 х 800
бітрейт: 4 910 кб/с

Аудіо:
мова: німецька, данська, англійська
переклад: оригінал
кодек: 5.1
бітрейт: 384 кб/с

Субтитри:
мова: українська (власний переклад з англійської)
тип: програмні (м'які)
формат: *.srt
Скріншоти




MediaInfo

G:\hurtom\Land of Mine - Under sandet (2015)\Land of Mine - Under sandet (2015).mkv
General
Unique ID : 245127600379078883907159413453948866097 (0xB869DBCBACD44004A80955908E364E31)
Complete name : G:\hurtom\Land of Mine - Under sandet (2015)\Land of Mine - Under sandet (2015).mkv
Format : Matroska
Format version : Version 4 / Version 2
File size : 3.32 GiB
Duration : 1h 36mn
Overall bit rate : 4 910 Kbps
Encoded date : UTC 2016-11-16 22:07:30
Writing application : mkvmerge v6.0.0 ('Coming Up For Air') built on Jan 20 2013 09:52:00
Writing library : libebml v1.3.0 + libmatroska v1.4.0
DURATION : 01:36:42.960000000
NUMBER_OF_FRAMES : 145074
NUMBER_OF_BYTES : 3281769999
_STATISTICS_WRITING_APP : mkvmerge v8.5.0 ('Vanishing Act') 64bit
_STATISTICS_WRITING_DATE_UTC : 2016-04-04 09:06:57
_STATISTICS_TAGS : BPS DURATION NUMBER_OF_FRAMES NUMBER_OF_BYTES
Video #2
ID : 2
Format : AVC
Format/Info : Advanced Video Codec
Format profile : [email protected]
Format settings, CABAC : Yes
Format settings, ReFrames : 5 frames
Codec ID : V_MPEG4/ISO/AVC
Duration : 1h 36mn
Bit rate : 4 428 Kbps
Width : 1 916 pixels
Height : 800 pixels
Display aspect ratio : 2.40:1
Frame rate mode : Constant
Frame rate : 25.000 fps
Color space : YUV
Chroma subsampling : 4:2:0
Bit depth : 8 bits
Scan type : Progressive
Bits/(Pixel*Frame) : 0.116
Stream size : 2.99 GiB (90%)
Language : English
Default : Yes
Forced : No
Color primaries : BT.709
Transfer characteristics : BT.709
Matrix coefficients : BT.709
Audio #1
ID : 1
Format : AC-3
Format/Info : Audio Coding 3
Mode extension : CM (complete main)
Format settings, Endianness : Big
Codec ID : A_AC3
Duration : 1h 36mn
Bit rate mode : Constant
Bit rate : 384 Kbps
Channel(s) : 6 channels
Channel positions : Front: L C R, Side: L R, LFE
Sampling rate : 48.0 KHz
Bit depth : 16 bits
Compression mode : Lossy
Stream size : 266 MiB (8%)
Language : Danish
Default : Yes
Forced : No
Text #3
ID : 3
Format : UTF-8
Codec ID : S_TEXT/UTF8
Codec ID/Info : UTF-8 Plain Text
Language : Ukrainian
Default : Yes
Forced : No
Особиста оцінка: 9 - давно не бачив настільки якісне кіно


Авторський реліз (завантажувати можна без реєстрації)
 Трекер:    Зареєстрований   

Завантажити / скачати фільм українською



відео для новачків



 Зареєстрований:   2016-11-17 00:51
 Розмір:   3.32 GB 
 Оцінка фільму:   9.8/10 (Голосів: 4)
   
11FrYkT 
Модератор відео


З нами з: 20.02.11
Востаннє: 09.12.16
Повідомлень: 3135

2016-11-17 17:34  
TroSer , додайте медіаінфо
Olegmk 
Новенький


З нами з: 17.07.11
Востаннє: 09.12.16
Повідомлень: 2

2016-11-27 16:27  
Чудовий фільм. Варто переглянути - в будь-яких ситуаціях варто залишатись Людиною.
Ваш часовий пояс: GMT + 2 Години

Нова тема   Відповісти