Завантажити та скачати торренти українською


Дім дивних дітей Міс Сапсан / Miss Peregrine's Home for Peculiar Children (2016) 720p Ukr/Eng | Sub Eng

Нові коментарі

Нова тема   Відповісти
Автор Повідомлення
Anonymous 







2016-11-16 22:14  
Дім дивних дітей Міс Сапсан / Miss Peregrine's Home for Peculiar Children (2016) 720p Ukr/Eng | Sub Eng

Дім дивних дітей Міс Сапсан / Miss Peregrine's Home for Peculiar Children (2016) 720p Ukr/Eng | Sub Eng


Жанр: фентезі, драма, пригодницький, сімейний
Країна: США, Велика Британія, Бельгія



Кінокомпанія: Twentieth Century Fox Film Corporation, Chernin Entertainment, Scope Pictures, St. Petersburg Clearwater Film Commission, TSG Entertainment, Tim Burton Productions
Режисер: Тім Бартон / Tim Burton
Актори: Ева Ґрін / Eva Green, Семюел Джексон / Samuel L. Jackson, Аса Баттерфілд / Asa Butterfield, Джуді Денч / Judi Dench, Кім Діккенс / Kim Dickens, Еллісон Дженні / Allison Janney, Елла Пернелл / Ella Purnell, Кріс О’Дауд / Chris O'Dowd, Руперт Еверетт / Rupert Everett, Теренс Стемп / Terence Stamp та інші

Сюжет:
Після смерті улюбленого дідуся Джейк отримує від нього лист з ключами до таємниці, яка об'єднує різні світи й епохи. Тому хлопчик потрапляє до таємничого місця, відомого як "Будинок дивних дітей". Таємничість і загроза посилюються, коли Джейк знайомиться з жителями "Дому" і дізнається про їхні особливі можливості ... і могутніх ворогів. Нарешті Джейк розуміє, що тільки його власні "особливі якості" можуть врятувати нових друзів.


Тривалість: 02:06:55
Якість: 720p
Відео:
кодек:
розмір кадру: 1280 х 720
бітрейт: 6500 Кбіт/с

Аудіо # 1:
мова: українська
переклад: професійний дубльований
кодек: 2.0
бітрейт: 192 Кбіт/с

Аудіо # 2:
мова: англійська
переклад: оригінал
кодек: 5.1
бітрейт: 640 Кбіт/с

Субтитри:
мова: англійська
тип: програмні (м'які)
формат: *.srt

Збережено оригінальні розділи, як на Blu-ray
MediaInfo
Код:
Format                      : Matroska
Format version              : Version 4 / Version 2
File size                   : 6.50 GiB
Duration                    : 2 h 6 min
Overall bit rate            : 7 334 kb/s

Video
ID                          : 1
Format                      : AVC
Format/Info                 : Advanced Video Codec
Format profile              : [email protected]
Format settings, CABAC      : Yes
Format settings, ReFrames   : 9 frames
Codec ID                    : V_MPEG4/ISO/AVC
Duration                    : 2 h 6 min
Bit rate                    : 6 500 kb/s
Width                       : 1 280 pixels
Height                      : 692 pixels
Display aspect ratio        : 1.85:1
Frame rate mode             : Constant
Frame rate                  : 23.976 (24000/1001) FPS
Color space                 : YUV
Chroma subsampling          : 4:2:0
Bit depth                   : 8 bits
Scan type                   : Progressive
Bits/(Pixel*Frame)          : 0.306
Stream size                 : 5.76 GiB (89%)
Title                       : Дім дивних дітей Міс Сапсан / Miss Peregrine's Home for Peculiar Children (2016) 720p [ExKinoRay]
Writing library             : core 148 r2597 e86f3a1
Encoding settings           : cabac=1 / ref=9 / deblock=1:0:0 / analyse=0x3:0x113 / me=umh / subme=10 / psy=1 / psy_rd=1.05:0.10 / mixed_ref=1 / me_range=32 / chroma_me=1 / trellis=2 / 8x8dct=1 / cqm=0 / deadzone=21,11 / fast_pskip=0 / chroma_qp_offset=-2 / threads=12 / lookahead_threads=1 / sliced_threads=0 / nr=0 / decimate=1 / interlaced=0 / bluray_compat=0 / constrained_intra=0 / bframes=6 / b_pyramid=2 / b_adapt=2 / b_bias=0 / direct=3 / weightb=1 / open_gop=0 / weightp=2 / keyint=250 / keyint_min=23 / scenecut=40 / intra_refresh=0 / rc=2pass / mbtree=0 / bitrate=6500 / ratetol=1.0 / qcomp=0.70 / qpmin=0 / qpmax=69 / qpstep=4 / cplxblur=20.0 / qblur=0.5 / ip_ratio=1.40 / pb_ratio=1.30 / aq=2:1.00
Language                    : English
Default                     : Yes
Forced                      : No

Audio #1
ID                          : 2
Format                      : AC-3
Format/Info                 : Audio Coding 3
Mode extension              : CM (complete main)
Format settings, Endianness : Big
Codec ID                    : A_AC3
Duration                    : 2 h 6 min
Bit rate mode               : Constant
Bit rate                    : 192 kb/s
Channel(s)                  : 2 channels
Channel positions           : Front: L R
Sampling rate               : 48.0 kHz
Frame rate                  : 31.250 FPS (1536 spf)
Compression mode            : Lossy
Stream size                 : 174 MiB (3%)
Title                       : Dub, 2.0 192 Kbps [Hurtom-Covenant]
Language                    : Ukrainian
Default                     : Yes
Forced                      : Yes

Audio #2
ID                          : 3
Format                      : AC-3
Format/Info                 : Audio Coding 3
Mode extension              : CM (complete main)
Format settings, Endianness : Big
Codec ID                    : A_AC3
Duration                    : 2 h 6 min
Bit rate mode               : Constant
Bit rate                    : 640 kb/s
Channel(s)                  : 6 channels
Channel positions           : Front: L C R, Side: L R, LFE
Sampling rate               : 48.0 kHz
Frame rate                  : 31.250 FPS (1536 spf)
Compression mode            : Lossy
Stream size                 : 581 MiB (9%)
Title                       : Original, E- 5.1 640 Kbps
Language                    : English
Default                     : No
Forced                      : No

Text
ID                          : 4
Format                      : UTF-8
Codec ID                    : S_TEXT/UTF8
Codec ID/Info               : UTF-8 Plain Text
Duration                    : 2 h 1 min
Bit rate                    : 48 b/s
Count of elements           : 1491
Stream size                 : 43.3 KiB (0%)
Title                       : Eng Full
Language                    : English
Default                     : No
Forced                      : No

Menu
00:00:00.000                : en:1
00:06:27.958                : en:2
00:12:44.083                : en:3
00:19:01.791                : en:4
00:25:05.957                : en:5
00:30:53.832                : en:6
00:36:47.373                : en:7
00:43:08.331                : en:8
00:48:55.122                : en:9
00:57:04.288                : en:10
01:03:47.954                : en:11
01:09:57.204                : en:12
01:16:17.120                : en:13
01:22:14.828                : en:14
01:27:31.078                : en:15
01:34:19.536                : en:16
01:41:46.786                : en:17
01:49:49.286                : en:18
01:56:45.286                : en:19


Джерело: &
Подяка за українську доріжку п.Covenant`y.


Золотий реліз (завантажене не впливає на рейтинг)
 Трекер:    Зареєстрований   

Завантажити / скачати фільм українською



відео для новачків



 Зареєстрований:   2016-12-04 22:40
 Розмір:   6.5 GB 
 Оцінка фільму:   7.4/10 (Голосів: 40)
   
santaklava 
Новенький


З нами з: 12.10.09
Востаннє: 03.12.16
Повідомлень: 22

2016-11-17 13:17  
дякую, діти дуже чекали
lost_in_you 
Частий відвідувач


З нами з: 17.11.11
Востаннє: 04.12.16
Повідомлень: 38

2016-11-17 21:34  
Гожа стрічка. Переглянув з захопленням. Дуже вдячний.
Anonymous 







2016-12-04 22:42  
Вибачаюсь за затримку, уточнював інфу щодо кращого звуку, протягом півгодини буде оновлення.

Додано через 21 хвилину 17 секунд:

Реліз оновлено!
Замінено відеоряд на

NeetScrool 
Відео Гуртом - фільмокрай
Відео Гуртом - фільмокрай


З нами з: 10.01.13
Востаннє: 05.12.16
Повідомлень: 2214

2016-12-04 22:59  
Якісніший звук буде?
Anonymous 







2016-12-04 23:00  
поки ні.
10alexs 
VIP


З нами з: 26.02.09
Востаннє: 05.12.16
Повідомлень: 296

2016-12-04 23:16  
Anonymous
Хіба є сенс лякати користувачів щось релізити роздачами від такої сторінки, адже ІР всеодно висвічується в клієнті, чи ви через проксі якийсь роздаєте? По ніку ж всеодно не вирахують Wide grin

Ваш часовий пояс: GMT + 2 Години

Нова тема   Відповісти