Завантажити та скачати торренти українською


Театр примар / Gekijô rei / Ghost Theater (2015) 720p Ukr/Jpn

Нові коментарі

Нова тема   Відповісти
Автор Повідомлення
krigg070 
Відео Гуртом - фільмокрай
Відео Гуртом - фільмокрай


З нами з: 29.10.14
Востаннє: 04.12.16
Повідомлень: 347

2016-11-14 20:38  
Театр примар / Gekijô rei / Ghost Theater (2015) 720p Ukr/Jpn

Театр примар / Gekijô rei / Ghost Theater (2015) 720p Ukr/Jpn


Жанр: жахи
Країна: Японія



Кінокомпанія: Django Film, Kyoraku Industrial Holdings, Nikkatsu
Режисер: Хідео Накаті
Актори: Харука Сімадзакі, Мантаро Коіті, Ріка Адаті, Ріхо Такагі та інші

Сюжет:
Існує повір'я, що у ляльки, створеної істинним майстром своєї справи, з'являється душа, і вона починає в певному сенсі жити спершу зі своїм творцем, а потім і новими господарями, вбираючи в себе їх емоції як хороші, так і погані. Дії картини починається з того, що батько двох школярок, страшно переляканих лялькою, яка рухалася і намагається її знищити, але встигає тільки обезголовити ходячий манекен, після чого увірвалася поліція заарештовує чоловіка за підозрою у скоєнні вбивства. Двадцять років потому голову ляльки, лежачу серед іншого реквізиту, знаходять на полицях театру і вирішують її задіяти в майбутній постановці, присвяченої життю Єлизавети Баторі - кривавої угорської графині, яка вбила сотні невинних дівчат, щоб приймати омолоджуючі ванни з їх крові.

Молода актриса Сара, втомлена грати епізодичні ролі трупів або жертв, отримує перспективну роль у театральній постановці про угорську графиню. Одного разу під час репетиції, коли на сцену принесли голову ляльки вже прикріпленою до нового дерев'яного тілу, Аои, актриса виконуюча головну роль, раптово збивається і забуває свої слова, при цьому дівчина стверджує, що лялька кліпала. Після чого в театрі починає відбуватися ланцюжок непояснених зловісних подій.


Тривалість: 01:39:24
Якість: 720p
Відео:
кодек:
розмір кадру: 1280 х 690
бітрейт: 4 818 кб/с

Аудіо # 1:
мова: українська
переклад: багатоголосий закадровий
кодек: 2.0
бітрейт: 192 кб/с

Аудіо # 2:
мова: японська
переклад: оригінал
кодек: 5.1
бітрейт: 640 кб/с
Скріншоти
MediaInfo
Код:
Video
ID                             : 1
Format                         : AVC
Format/Info                    : Advanced Video Codec
Format profile                 : [email protected]
Format settings, CABAC         : Yes
Format settings, ReFrames      : 9 frames
Codec ID                       : V_MPEG4/ISO/AVC
Duration                       : 1h 39mn
Bit rate                       : 4 818 Kbps
Width                          : 1 280 pixels
Height                         : 690 pixels
Display aspect ratio           : 1.85:1
Frame rate mode                : Constant
Frame rate                     : 23.976 (24000/1001) fps
Color space                    : YUV
Chroma subsampling             : 4:2:0
Bit depth                      : 8 bits
Scan type                      : Progressive
Bits/(Pixel*Frame)             : 0.228
Stream size                    : 3.34 GiB (85%)
Writing library                : core 129 r2245+704+36 8e61944 tMod+MixAQ [[email protected]:2:0 X86_64]
Encoding settings              : cabac=1 / ref=9 / deblock=1:-3:-3 / analyse=0x3:0x133 / me=umh / subme=11 / psy=1 / fade_compensate=0.00 / psy_rd=1.05:0.10 / mixed_ref=1 / me_range=32 / chroma_me=1 / trellis=2 / 8x8dct=1 / cqm=0 / deadzone=21,11 / fast_pskip=0 / chroma_qp_offset=-3 / threads=12 / lookahead_threads=2 / sliced_threads=0 / nr=0 / decimate=0 / interlaced=0 / bluray_compat=0 / constrained_intra=0 / fgo=0 / bframes=10 / b_pyramid=2 / b_adapt=2 / b_bias=0 / direct=3 / weightb=1 / open_gop=0 / weightp=2 / keyint=250 / keyint_min=23 / scenecut=40 / intra_refresh=0 / rc_lookahead=80 / rc=2pass / mbtree=1 / bitrate=4818 / ratetol=1.0 / qcomp=0.70 / qpmin=0 / qpmax=69 / qpstep=4 / cplxblur=20.0 / qblur=0.5 / ip_ratio=1.40 / aq=1 / aq-strength=0.85 / aq-sensitivity=10.00 / aq-ifactor=1.00 / aq-pfactor=1.00 / aq-bfactor=1.00 / aq2=0
Language                       : Japanese
Default                        : Yes
Forced                         : No

Audio #1
ID                             : 2
Format                         : AC-3
Format/Info                    : Audio Coding 3
Mode extension                 : CM (complete main)
Format settings, Endianness    : Big
Codec ID                       : A_AC3
Duration                       : 1h 39mn
Bit rate mode                  : Constant
Bit rate                       : 192 Kbps
Channel(s)                     : 2 channels
Channel positions              : Front: L R
Sampling rate                  : 48.0 KHz
Frame rate                     : 31.250 fps (1536 spf)
Compression mode               : Lossy
Stream size                    : 137 MiB (3%)
Title                          : 2.0 @ 192 kbps - MVO
Language                       : Ukrainian
Default                        : Yes
Forced                         : No

Audio #2
ID                             : 3
Format                         : AC-3
Format/Info                    : Audio Coding 3
Mode extension                 : CM (complete main)
Format settings, Endianness    : Big
Codec ID                       : A_AC3
Duration                       : 1h 39mn
Bit rate mode                  : Constant
Bit rate                       : 640 Kbps
Channel(s)                     : 6 channels
Channel positions              : Front: L C R, Side: L R, LFE
Sampling rate                  : 48.0 KHz
Frame rate                     : 31.250 fps (1536 spf)
Compression mode               : Lossy
Stream size                    : 455 MiB (11%)
Title                          : 5.1 @ 640 kbps - Original
Language                       : Japanese
Default                        : No
Forced                         : No

Menu
00:00:00.000                   : en:00:00:00.000
00:04:53.584                   : en:00:04:53.584
00:08:55.701                   : en:00:08:55.701
00:19:20.617                   : en:00:19:20.617
00:28:30.708                   : en:00:28:30.708
00:36:26.350                   : en:00:36:26.350
00:46:37.503                   : en:00:46:37.503
01:00:32.420                   : en:01:00:32.420
01:11:31.203                   : en:01:11:31.203
01:19:45.113                   : en:01:19:45.113
01:33:30.521                   : en:01:33:30.521
01:36:01.172                   : en:01:36:01.172
01:39:23.958                   : en:01:39:23.958
Джерело:


 Трекер:    Зареєстрований   

Завантажити / скачати фільм українською



відео для новачків



 Зареєстрований:   2016-11-14 20:38
 Розмір:   3.92 GB 
 Оцінка фільму:   9.5/10 (Голосів: 4)
   
Інші релізи
   Театр примар / Gekijô rei / Ghost Theater (2015) drop_plz  10 / 1   1.41 GB   2016-12-04 10:39 
Ваш часовий пояс: GMT + 2 Години

Нова тема   Відповісти