Завантажити та скачати торренти українською


Могилевська Наталія | Колекція [2 альбоми + 1 Maxi] (2006-2008) [FLAC] | Pop

Нові коментарі

Нова тема   Відповісти
Автор Повідомлення
plyrvt 
VIP


З нами з: 03.12.08
Востаннє: 03.12.16
Повідомлень: 398

2009-10-05 12:48  
Могилевська Наталія | Колекція [2 альбоми + 1 Maxi] (2006-2008) [FLAC] | Pop



Стиль: Pop
Країна, місто: Україна, Київ
Сайти: Офіційний сайт
Видавець: Moon records
Виконавці:
Наталя Олексіївна Могила, Сергій Підкаура, Скрябін Кузьма
Альбоми:
2006 - Відправила Message


01 - Відправила message - 3:55
02 - Відірватись від землі - 4:20
03 - Він не сказав ні слова - 4:12
04 - Я скажу тобі Вау! - 3:49
05 - Давай з тобою... - 3:32
06 - Розкажи мені (чом плачеш ти) - 4:45
07 - Вільний птах - 3:53
08 - Авжеж - 3:28
09 - Миша (з С. Підкаурою) - 4:28
10 - Подих - 3:08
11 - Ти мені не даеш - 4:11
12 - Немає правди в словах - 3:36
13 - Він не сказав ні слова (салон-міх) - 3:43

Тривалість: 00:50:58
Видавець: Moon records
Мова: українська
EAC Log
Exact Audio Copy V0.99 prebeta 4 from 23. January 2008

Отчёт EAC об извлечении, выполненном 8. января 2009, 23:52

Наталія Могилевська / Відправила Message

Дисковод: _NEC DVD_RW ND-4550A Adapter: 3 ID: 0

Режим чтения : Достоверность
Использование точного потока : Да
Отключение кэша аудио : Да
Использование указателей C2 : Нет

Коррекция смещения при чтении : 48
Способность читать области Lead-in и Lead-out : Нет
Заполнение пропущенных сэмплов тишиной : Да
Удаление блоков с тишиной в начале и конце : Нет
При вычислениях CRC использовались нулевые сэмплы : Да
Интерфейс : Установленный внешний ASPI-интерфейс

Выходной формат : Внутренние WAV-операции
Формат сэмплов : 44.100 Гц; 16 бит; стерео

TOC извлечённого CD

Трек | Старт | Длительность | Начальный сектор | Конечный сектор
---------------------------------------------------------------------
1 | 0:00.00 | 3:54.41 | 0 | 17590
2 | 3:54.41 | 4:19.49 | 17591 | 37064
3 | 8:14.15 | 4:11.51 | 37065 | 55940
4 | 12:25.66 | 3:49.26 | 55941 | 73141
5 | 16:15.17 | 3:32.23 | 73142 | 89064
6 | 19:47.40 | 4:44.56 | 89065 | 110420
7 | 24:32.21 | 3:52.52 | 110421 | 127872
8 | 28:24.73 | 3:27.51 | 127873 | 143448
9 | 31:52.49 | 4:28.24 | 143449 | 163572
10 | 36:20.73 | 3:07.43 | 163573 | 177640
11 | 39:28.41 | 4:11.06 | 177641 | 196471
12 | 43:39.47 | 3:35.72 | 196472 | 212668
13 | 47:15.44 | 3:43.14 | 212669 | 229407
14 | 53:30.58 | 15:27.29 | 240808 | 310361

Характеристики диапазона извлечения и сообщения об ошибках

Выбранный диапазон

Имя файла D:\123\Новые рипы\Могила\Наталія Могилевська - Відправила Message.wav

Пиковый уровень 100.0 %
Качество диапазона 99.9 %
CRC копии 0EAB5BD6
Копирование... OK

Ошибок не произошло

AccurateRip: сводка

Трек 1 нет в базе данных
Трек 2 нет в базе данных
Трек 3 нет в базе данных
Трек 4 нет в базе данных
Трек 5 нет в базе данных
Трек 6 нет в базе данных
Трек 7 нет в базе данных
Трек 8 нет в базе данных
Трек 9 нет в базе данных
Трек 10 нет в базе данных
Трек 11 нет в базе данных
Трек 12 нет в базе данных
Трек 13 нет в базе данных

Ни одного трека нет в базе AccurateRip

Конец отчёта
Audiochecker Log
AUDIOCHECKER v2.0 beta (build 457) - by Dester - [email protected]
~~~~~~~~~~~~~~~~~~~~~~~~~~~~~~~~~~
-=== НЕ РЕДАКТИРУЙТЕ ЭТОТ ФАЙЛ! ===-

Путь: ...\2006 - Відправила message

01 -=- 01 Відправила message.flac -=- CDDA (100%)
02 -=- 02 Відірватись від землі.flac -=- CDDA (100%)
03 -=- 03 Він не сказав ні слова.flac -=- CDDA (100%)
04 -=- 04 Я скажу тобі Вау!.flac -=- CDDA (100%)
05 -=- 05 Давай з тобою....flac -=- CDDA (100%)
06 -=- 06 Розкажи мені (чом плачеш ти).flac -=- CDDA (100%)
07 -=- 07 Вільний птах.flac -=- CDDA (100%)
08 -=- 08 Авжеж.flac -=- MPEG (95%)
09 -=- 09 Миша (з С. Підкаурою).flac -=- CDDA (100%)
10 -=- 10 Подих.flac -=- CDDA (100%)
11 -=- 11 Ти мені не даеш.flac -=- CDDA (100%)
12 -=- 12 Немає правди в словах.flac -=- CDDA (100%)
13 -=- 13 Він не сказав ні слова (салон-міх).flac -=- CDDA (100%)

Сводка 92,69% CDDA

183402196
2008 - The Best: Любила


01 - Любила - 3:41
02 - Немножечко Тепла - 3:01
03 - Відірватись Від Землі - 4:17
04 - Этот Танец (Latino Mix) - 3:29
05 - Плюшевый Мишка - 5:38
06 - Лимоновый Фонарь - 3:05
07 - Відправила Message - 3:51
08 - Полюби Меня Такой - 3:47
09 - Знаешь.net - 3:54
10 - Только Я Буду Любить Тебя (Version 2008) - 3:46
11 - Вільний Птах (Серед Гір) - 3:49
12 - Больше Никогда - 4:03
13 - Доля Моя - 4:52
14 - В Киеве Осень - 4:18
15 - Він Не Сказав Ні - 4:09
16 - Осень, Я и Огонь - 3:26
17 - Я Самая - 3:08
18 - Ти Мені Не Даєш - 4:07
19 - Я Не Такая - 4:04

Тривалість: 01:14:26
Видавець: Moon records
Мова: українська (03, 07, 11, 13, 15, 18-19), російська (01-02, 04-06, 08-10, 12, 14, 16-17)
EAC Log
Exact Audio Copy V0.99 prebeta 4 from 23. January 2008

Отчёт EAC об извлечении, выполненном 2. сентября 2008, 12:05

Наталья Могилевская / The Best: Любила

Дисковод: HL-DT-STDVD-ROM GDR8161B Adapter: 0 ID: 0

Режим чтения : Достоверность
Использование точного потока : Да
Отключение кэша аудио : Да
Использование указателей C2 : Нет

Коррекция смещения при чтении : 102
Способность читать области Lead-in и Lead-out : Нет
Заполнение пропущенных сэмплов тишиной : Да
Удаление блоков с тишиной в начале и конце : Нет
При вычислениях CRC использовались нулевые сэмплы : Да
Интерфейс : Встроенный Win32-интерфейс для Win NT/2000

Выходной формат : Внутренние WAV-операции
Формат сэмплов : 44.100 Гц; 16 бит; стерео

TOC извлечённого CD

Трек | Старт | Длительность | Начальный сектор | Конечный сектор
---------------------------------------------------------------------
1 | 0:00.00 | 3:41.14 | 0 | 16588
2 | 3:41.14 | 3:01.25 | 16589 | 30188
3 | 6:42.39 | 4:16.65 | 30189 | 49453
4 | 10:59.29 | 3:28.72 | 49454 | 65125
5 | 14:28.26 | 5:38.37 | 65126 | 90512
6 | 20:06.63 | 3:04.67 | 90513 | 104379
7 | 23:11.55 | 3:51.09 | 104380 | 121713
8 | 27:02.64 | 3:46.43 | 121714 | 138706
9 | 30:49.32 | 3:53.40 | 138707 | 156221
10 | 34:42.72 | 3:46.26 | 156222 | 173197
11 | 38:29.23 | 3:49.36 | 173198 | 190408
12 | 42:18.59 | 4:03.21 | 190409 | 208654
13 | 46:22.05 | 4:52.22 | 208655 | 230576
14 | 51:14.27 | 4:17.53 | 230577 | 249904
15 | 55:32.05 | 4:08.48 | 249905 | 268552
16 | 59:40.53 | 3:26.10 | 268553 | 284012
17 | 63:06.63 | 3:07.51 | 284013 | 298088
18 | 66:14.39 | 4:07.22 | 298089 | 316635
19 | 70:21.61 | 4:04.32 | 316636 | 334967

Характеристики диапазона извлечения и сообщения об ошибках

Выбранный диапазон

Имя файла F:\Lossless\Наталья Могилевская\The Best. Любила\Наталья Могилевская - The Best. Любила.wav

Пиковый уровень 97.7 %
Качество диапазона 99.9 %
CRC копии 96592E7A
Копирование... OK

Ошибок не произошло

Конец отчёта
Audiochecker Log
AUDIOCHECKER v2.0 beta (build 457) - by Dester - [email protected]
~~~~~~~~~~~~~~~~~~~~~~~~~~~~~~~~~~
-=== НЕ РЕДАКТИРУЙТЕ ЭТОТ ФАЙЛ! ===-

Путь: ...\2008 - The Best. Любила

01 -=- 01 - Любила.wav -=- CDDA (100%)
02 -=- 02 - Немножечко Тепла.wav -=- CDDA (100%)
03 -=- 03 - Відірватись Від Землі.wav -=- CDDA (100%)
04 -=- 04 - Этот Танец (Latino Mix).wav -=- CDDA (100%)
05 -=- 05 - Плюшевый Мишка.wav -=- CDDA (100%)
06 -=- 06 - Лимоновый Фонарь.wav -=- CDDA (100%)
07 -=- 07 - Відправила Message.wav -=- CDDA (100%)
08 -=- 08 - Полюби Меня Такой.wav -=- CDDA (99%)
09 -=- 09 - Знаешь.net.wav -=- CDDA (100%)
10 -=- 10 - Только Я Буду Любить Тебя (Version 2008).wav -=- CDDA (100%)
11 -=- 11 - Вільний Птах (Серед Гір).wav -=- CDDA (99%)
12 -=- 12 - Больше Никогда.wav -=- CDDA (100%)
13 -=- 13 - Доля Моя.wav -=- CDDA (100%)
14 -=- 14 - В Киеве Осень.wav -=- CDDA (100%)
15 -=- 15 - Він Не Сказав Ні.wav -=- CDDA (100%)
16 -=- 16 - Осень, Я и Огонь.wav -=- CDDA (100%)
17 -=- 17 - Я Самая.wav -=- CDDA (100%)
18 -=- 18 - Ти Мені Не Даєш.wav -=- CDDA (100%)
19 -=- 19 - Я Не Такая.wav -=- CDDA (100%)

Сводка 99,89% CDDA

174040500
2008 - Real O


01 - Real O (Original Pavliga mix) - 3:11
02 - Real O (ElectroPop Mix) - 3:11
03 - Real O (Max Creative Radio Edit) - 3:28
04 - Real O (Lutique's Radio Edit) - 3:32
05 - Real O (Streamteck Radio Edit) - 3:56
06 - Real O (Max Creative remix) - 6:36
07 - Real O (Lutique Remix) - 5:24
08 - Real O (Streamteck Remix) - 5:27
09 - Real O (Houseboy & Relanium Club Mix) - 6:08
10 - Real O (Slava Flash Remix) - 6:40
11 - До завтра, мам! (2Special Remix) - 5:58
12 - До завтра, мам! (Konstantin Yoodza Remix) - 5:54

Тривалість: 00:59:26
Видавець: Moon records
Мова: російська
EAC Log
Exact Audio Copy V0.99 prebeta 5 from 4. May 2009

EAC extraction logfile from 19. October 2009, 13:15

Наталія Могилевська / Real O

Used drive : HL-DT-STDVDRAM GSA-H10N Adapter: 0 ID: 1

Read mode : Secure
Utilize accurate stream : Yes
Defeat audio cache : Yes
Make use of C2 pointers : No

Read offset correction : 667
Overread into Lead-In and Lead-Out : No
Fill up missing offset samples with silence : Yes
Delete leading and trailing silent blocks : No
Null samples used in CRC calculations : No
Used interface : Native Win32 interface for Win NT & 2000

Used output format : Monkey's Audio Lossless Encoder v3.99 DLL
Sample format : High Lossless Compression

TOC of the extracted CD

Track | Start | Length | Start sector | End sector
---------------------------------------------------------
1 | 0:00.00 | 3:11.25 | 0 | 14349
2 | 3:11.25 | 3:11.25 | 14350 | 28699
3 | 6:22.50 | 3:27.72 | 28700 | 44296
4 | 9:50.47 | 3:32.17 | 44297 | 60213
5 | 13:22.64 | 3:56.23 | 60214 | 77936
6 | 17:19.12 | 6:35.63 | 77937 | 107624
7 | 23:55.00 | 5:24.25 | 107625 | 131949
8 | 29:19.25 | 5:27.37 | 131950 | 156511
9 | 34:46.62 | 6:07.47 | 156512 | 184083
10 | 40:54.34 | 6:39.42 | 184084 | 214050
11 | 47:34.01 | 5:57.58 | 214051 | 240883
12 | 53:31.59 | 5:54.34 | 240884 | 267467
13 | 61:58.18 | 6:58.61 | 278868 | 310278

Range status and errors

Selected range

Filename E:\Music3\Ukrainian\М\Могилевська Наталя\Singles\2008 - Real O\2008 - Real O.ape

Peak level 100.0 %
Range quality 100.0 %
Test CRC D143820F
Copy CRC D143820F
Copy OK

No errors occurred

AccurateRip summary

Track 1 not present in database
Track 2 not present in database
Track 3 not present in database
Track 4 not present in database
Track 5 not present in database
Track 6 not present in database
Track 7 not present in database
Track 8 not present in database
Track 9 not present in database
Track 10 not present in database
Track 11 not present in database
Track 12 not present in database

None of the tracks are present in the AccurateRip database

End of status report
Audiochecker Log
AUDIOCHECKER v2.0 beta (build 457) - by Dester - [email protected]
~~~~~~~~~~~~~~~~~~~~~~~~~~~~~~~~~~
-=== НЕ РЕДАКТИРУЙТЕ ЭТОТ ФАЙЛ! ===-

Путь: ...\2008 - Real O

01 -=- 01 - Real O (Original Pavliga mix).wav -=- CDDA (100%)
02 -=- 02 - Real O (ElectroPop Mix).wav -=- CDDA (100%)
03 -=- 03 - Real O (Max Creative Radio Edit).wav -=- CDDA (100%)
04 -=- 04 - Real O (Lutique's Radio Edit).wav -=- CDDA (100%)
05 -=- 05 - Real O (Streamteck Radio Edit).wav -=- CDDA (100%)
06 -=- 06 - Real O (Max Creative remix).wav -=- CDDA (100%)
07 -=- 07 - Real O (Lutique Remix).wav -=- CDDA (100%)
08 -=- 08 - Real O (Streamteck Remix).wav -=- CDDA (100%)
09 -=- 09 - Real O (Houseboy & Relanium Club Mix).wav -=- CDDA (99%)
10 -=- 10 - Real O (Slava Flash Remix).wav -=- CDDA (100%)
11 -=- 11 - До завтра, мам! (2Special Remix).wav -=- CDDA (100%)
12 -=- 12 - До завтра, мам! (Konstantin Yoodza Remix).wav -=- CDDA (99%)

Сводка 99,83% CDDA

196020116
Data CD

Якість:
кодек: Divx v5
розмір кадру: 720*576 (4:3)

Аудіо: мова: російська
кодек: MP3 48000Hz stereo
бітрейт: 192 кбіт/сек

real_o.avi (Тривалість: 00:03:54, бітрейт відео 1958 кбіт/сек)


Тривалість: 03:05:01
Мова: українська (1-2), російська (2-3)
Аудіо-кодек: FLAC
Ріп: image+ Embedded CUE/EAC/audiochecker/cover)
EAC: Secure + Accurate stream + disable cache/C2 + Read offset correction
Бітрейт: lossless (~958-1051 кбіт/с)
ОНОВЛЕНО 19.10.2009
Додано максі сингл "2008 - Real O"


Срібний реліз (на рейтинг впливає 50% завантаженого)
 Трекер:    Зареєстрований   

Завантажити / скачати українську музику



відео для новачків



 Зареєстрований:   2009-10-19 13:08
 Розмір:   1.37 GB 
 Оцінка музики:   6.8/10 (Голосів: 5)
   
jinotot 
Почесний оцифрувальник літератури


З нами з: 28.01.09
Востаннє: 04.12.16
Повідомлень: 3235

2009-10-05 14:12  
plyrvt написано:
Виконавці:
Наталя Олексіївна Могила

О_о правда?? А я не знав Wide grin Але оце дивлюсь на фотографію і на це прізвище -- і так мені стає лячно, що аж під стіл хочеться залізти Happy А іншої фотки нема? Може, заради збереження психічного здоров'я модераторів і користувачів поміняємо? Wink (1)

Ну, добре... Я, звісно, упереджений і не маю права тут розводити подібну демагогію (зрештою, комусь же така музика і виконавиця подобаються) -- я це усвідомлюю.
Але менш лячно мені чомусь від цього не стає Wide grin Вибачайте!

plyrvt 
VIP


З нами з: 03.12.08
Востаннє: 03.12.16
Повідомлень: 398

2009-10-05 14:40  
Змнив фотку
jinotot 
Почесний оцифрувальник літератури


З нами з: 28.01.09
Востаннє: 04.12.16
Повідомлень: 3235

2009-10-05 15:40  
plyrvt написано:
Змнив фотку
ой, красно дякую, що пішов на зустріч Happy так мені вже трохи менш страшно Wide grin
Я от думаю -- раз це колекція, а не дискографія, то треба давати "срібло", напевно...
Якщо я неправий -- поправте.

plyrvt 
VIP


З нами з: 03.12.08
Востаннє: 03.12.16
Повідомлень: 398

2009-10-05 15:49  
Моя думка - нічо не давати. Кому тра lossless хай допомагають сідувати.
ssTAss 
Модератор музики


З нами з: 05.07.08
Востаннє: 06.12.16
Повідомлень: 10946

2009-10-05 15:50  
jinotot написано:
Якщо я неправий -- поправте.

праві
взагалі б отой "зе бест" треба було б у невидане (чи неофіційне)... але немає його в луслесі

plyrvt 
VIP


З нами з: 03.12.08
Востаннє: 03.12.16
Повідомлень: 398

2009-10-05 16:25  
Цитата:
"зе бест" треба було б у невидане (чи неофіційне)
офф

Ви сьогодні точно в ударі. Moon records з-під поли неофіційно видав "невидане" Happy
Мабуть пану модератору треба розказати трошки музичної теорії:
- невидане (a.k.a Демо) це пісні які ніколи не виходили в жодному альбомі чи компіляції, розповсюджуються легально самим виконавцем (в т.ч. через радіостанції) або нелегально (фанами)
- офіційні збірки (компіляції) - випускає лейбл з треків які вже виходили на інших альбомах. Іноді компіляції включають нові треки.
- бутлеґи - неофіційні компіляції зроблені піратами, в більшості робляться без санкції виконавців і тому переслідуються законом

"2008 - The Best. Любила" це офіційна компіляція, яка включає нові версії деяких треків

markuz777 
Новенький


З нами з: 28.09.11
Востаннє: 29.03.15
Повідомлень: 1

2011-09-29 23:24  
зробить хтось "CUE" файли будь ласка
ssTAss 
Модератор музики


З нами з: 05.07.08
Востаннє: 06.12.16
Повідомлень: 10946

2011-09-29 23:40  
markuz777 написано:
зробить хтось "CUE" файли будь ласка

вони вбудовані
plyrvt написано:
Embedded CUE/EAC/audiochecker/cover

і не тільки куе... лог і обкладинки
відкривайте файл фубаром і все побачите
далі вже можете самі зберегти файл куе окремо

plyrvt 
VIP


З нами з: 03.12.08
Востаннє: 03.12.16
Повідомлень: 398

2011-09-30 15:46  
markuz777 foobar2000 або AIMP працюють напряму з інтегрованим CUE, і також дозволяють їх зберегти окремо, якщо така потреба є.
blaHP 
Новенький


З нами з: 23.10.11
Востаннє: 23.10.11
Повідомлень: 1

2011-10-23 10:45  
Ребята поддайте скорости, давно искал этот релиз в качестве. Автору огромный респект.
Ваш часовий пояс: GMT + 2 Години

Нова тема   Відповісти