Завантажити та скачати торренти українською


Аліса в Задзеркаллі / Alice Through the Looking Glass (2016) 720p-mini (60fps)

Нові коментарі

Нова тема   Відповісти
Автор Повідомлення
Drool 
VIP


З нами з: 17.04.10
Востаннє: 09.12.16
Повідомлень: 1271

2016-11-14 14:05  
Аліса в Задзеркаллі / Alice Through the Looking Glass (2016) 720p-mini (60fps)

Жанр: пригодницький, фентезі, сімейний
Країна: США, Велика Британія



Кінокомпанія: Legend3D, Roth Films, Team Todd, Tim Burton Productions, Walt Disney Pictures
Режисер: Джеймс Бобін
Актори: Міа Васиковська, Джонні Депп, Енн Хетеуей, Хелена Бонем Картер, Алан Рікман, Річард Армітедж, Саша Барон Коен

Сюжет:
Та сама Аліса, яка стала успіхом 2010-го, повертається! Творці популярного сучасного фентезі запрошують у дивовижну пригоду, зняту за мотивами бестселера «Аліса в Задзеркаллі». Зробивши крок у Дзеркало, Аліса потрапляє у нову невідому реальність... Сон, вигадка, ілюзія, чи справжнісіньке божевілля?! Фантастичний калейдоскоп яскравих героїв, блискучий зірковий склад, тонкий гумор і графіка нового покоління — ви неодмінно повірите всьому, що побачите.


Тривалість: 01:53:14
Якість: 720p-mini
Відео:
кодек:
розмір кадру: 1280x692
бітрейт: 6987 кб/с
crf: crf=17.0
кадрів на секунду: 59.940 к/с

Аудіо:
мова: українська
переклад: оригінал
кодек: 5.1
бітрейт: 448 кб/с

Субтитри:
мова: українська
тип: програмні (м'які) форсовані
формат: *.srt
MediaInfo
Код:
General
Unique ID                                : 239438545612782544585938824806179163266 (0xB4222FBD63F385BC8D9C776D2C264C82)
Complete name                            : /mnt/disk_d/Video/Alice.Through.the.Looking.Glass.2016.Ukr.Dub..720p-mini.60fps.mkv
Format                                   : Matroska
Format version                           : Version 4 / Version 2
File size                                : 6.00 GiB
Duration                                 : 1h 53mn
Overall bit rate                         : 7 585 Kbps
Movie name                               : Аліса в Задзеркаллі / Alice Through the Looking Glass (2016) 720p-mini (60fps) | NNNB
Encoded date                             : UTC 2016-11-14 13:27:28
Writing application                      : mkvmerge v9.2.0 ('Photograph') 64bit
Writing library                          : libebml v1.3.3 + libmatroska v1.4.4
Attachements                             : cover.jpg
DURATION                                 : 01:43:52.490000000
NUMBER_OF_FRAMES                         : 5
NUMBER_OF_BYTES                          : 203
_STATISTICS_WRITING_APP                  : mkvmerge v9.2.0 ('Photograph') 64bit
_STATISTICS_WRITING_DATE_UTC             : 2016-11-14 13:27:28
_STATISTICS_TAGS                         : BPS DURATION NUMBER_OF_FRAMES NUMBER_OF_BYTES

Video
ID                                       : 1
Format                                   : AVC
Format/Info                              : Advanced Video Codec
Format profile                           : [email protected]
Format settings, CABAC                   : Yes
Format settings, ReFrames                : 9 frames
Codec ID                                 : V_MPEG4/ISO/AVC
Duration                                 : 1h 53mn
Bit rate                                 : 6 987 Kbps
Width                                    : 1 280 pixels
Height                                   : 692 pixels
Display aspect ratio                     : 1.85:1
Frame rate mode                          : Constant
Frame rate                               : 59.880 fps
Original frame rate                      : 59.940 fps
Color space                              : YUV
Chroma subsampling                       : 4:2:0
Bit depth                                : 8 bits
Scan type                                : Progressive
Bits/(Pixel*Frame)                       : 0.132
Stream size                              : 5.53 GiB (92%)
Title                                    : Аліса в Задзеркаллі / Alice Through the Looking Glass (2016) 720p-mini (60fps) | NNNB
Writing library                          : core 146 r2538 121396c
Encoding settings                        : cabac=1 / ref=9 / deblock=1:0:0 / analyse=0x3:0x113 / me=umh / subme=10 / psy=1 / psy_rd=1.00:0.00 / mixed_ref=1 / me_range=24 / chroma_me=1 / trellis=2 / 8x8dct=1 / cqm=0 / deadzone=21,11 / fast_pskip=0 / chroma_qp_offset=-2 / threads=12 / lookahead_threads=1 / sliced_threads=0 / nr=0 / decimate=1 / interlaced=0 / bluray_compat=0 / constrained_intra=0 / bframes=5 / b_pyramid=2 / b_adapt=2 / b_bias=0 / direct=3 / weightb=1 / open_gop=0 / weightp=2 / keyint=250 / keyint_min=25 / scenecut=40 / intra_refresh=0 / rc_lookahead=40 / rc=crf / mbtree=0 / crf=17.0 / qcomp=0.60 / qpmin=0 / qpmax=69 / qpstep=4 / vbv_maxrate=14000 / vbv_bufsize=14000 / crf_max=0.0 / nal_hrd=none / filler=0 / ip_ratio=1.40 / pb_ratio=1.30 / aq=3:1.00
Default                                  : Yes
Forced                                   : Yes
DURATION                                 : 01:53:14.004000000
NUMBER_OF_FRAMES                         : 407233
NUMBER_OF_BYTES                          : 6057949516
_STATISTICS_WRITING_APP                  : mkvmerge v9.2.0 ('Photograph') 64bit
_STATISTICS_WRITING_DATE_UTC             : 2016-11-14 13:27:28
_STATISTICS_TAGS                         : BPS DURATION NUMBER_OF_FRAMES NUMBER_OF_BYTES

Audio
ID                                       : 2
Format                                   : AC-3
Format/Info                              : Audio Coding 3
Mode extension                           : CM (complete main)
Format settings, Endianness              : Big
Codec ID                                 : A_AC3
Duration                                 : 1h 53mn
Bit rate mode                            : Constant
Bit rate                                 : 448 Kbps
Channel(s)                               : 6 channels
Channel positions                        : Front: L C R, Side: L R, LFE
Sampling rate                            : 48.0 KHz
Compression mode                         : Lossy
Stream size                              : 363 MiB (6%)
Title                                    : Рідна мова | 5.1 448 kbps
Language                                 : Ukrainian
Default                                  : Yes
Forced                                   : Yes

Text
ID                                       : 3
Format                                   : UTF-8
Codec ID                                 : S_TEXT/UTF8
Codec ID/Info                            : UTF-8 Plain Text
Title                                    : Українські (форсовані)
Language                                 : Ukrainian
Default                                  : Yes
Forced                                   : Yes
Скріншоти


Джерело відеоряду:
Особиста оцінка: 8 - мені сподобалося


 Трекер:    Зареєстрований   

Завантажити / скачати фільм українською



відео для новачків



 Зареєстрований:   2016-11-14 15:46
 Розмір:   6 GB 
 Оцінка фільму:   8.5/10 (Голосів: 8)
   
bot 
робот


З нами з: 30.09.07
Востаннє: 26.05.05
Повідомлень: 16038

2016-11-14 14:05  
Тему перенесено з Фільми в HD до форуму Анонси релізів


Drool

bot 
робот


З нами з: 30.09.07
Востаннє: 26.05.05
Повідомлень: 16038

2016-11-14 15:46  
Тему перенесено з Анонси релізів до форуму Фільми в HD


Drool

Loter 
Свій


З нами з: 17.04.09
Востаннє: 08.12.16
Повідомлень: 88

2016-11-16 23:40  
поясніть по простому, тут якість відео краща ніж в http://toloka.to/t76372 ? з того що я можу зрозуміти по медіаіфо то показники ніби вищі, але там як мінімум більший вибір звукових доріжок. просто не розумію для чого схожі релізи.

хоча впевнений що автор проаналізував вже наявні релізи і би не мучився робити повтор.

Drool 
VIP


З нами з: 17.04.10
Востаннє: 09.12.16
Повідомлень: 1271

2016-11-17 21:33  
Loter написано:
з того що я можу зрозуміти по медіаіфо то показники ніби вищі, але там як мінімум більший вибір звукових доріжок. просто не розумію для чого схожі релізи.
Тут реліз 720p-mini, оскільки в цьому релізі Bits/(Pixel*Frame) = 0.132 (менше за 0.159), в mini-релізі не обов'язкові оригінальні доріжки, а мені особисто вони не потрібні. Там повноцінний 720p, тому за правилами там оригінальні доріжки обов'язкові. Однак, тут відео підвищеної плавності, а там звичайний відеоряд. За якістю ці релізи абсолютно різні, якось навіть озвучувалась ідея створити окремий розділ для релізів підвищеної плавності, але через їх рідкісність ця ідея не знайшла підтримки у адміністраторів сайту. Щоб зрозуміти різницю між звичайним відеорядом та підвищеної плавності - це треба побачити на власні очі. Пошукайте по толоці релізи по ключовому слову "fps". Раптом і вам сподобається.
Loter 
Свій


З нами з: 17.04.09
Востаннє: 08.12.16
Повідомлень: 88

2016-11-17 22:33  
я бачив не один фільм з ваших релізів з 60 к/с., до якості претензій не маю, але якось не доводилося брати і порівнювати з аналогічним релізом з первинною частотою кадрів, ви мене зацікавили, попробую порівняти на власні очі.
NeetScrool 
Відео Гуртом - фільмокрай
Відео Гуртом - фільмокрай


З нами з: 10.01.13
Востаннє: 09.12.16
Повідомлень: 2220

2016-11-23 21:36  
Дуже круто вийшло Усе таке яскраве та плавне...мммм....
Ваш часовий пояс: GMT + 2 Години

Нова тема   Відповісти