Завантажити та скачати торренти українською


47 Ронін / 47 Ronin (2013) 1080p 3D [HalfOverUnder] Ukr(MIC)/Eng | Sub Ukr/Eng

Нові коментарі

Нова тема   Відповісти
Автор Повідомлення
RushPill 
Новенький


З нами з: 12.01.16
Востаннє: 24.11.16
Повідомлень: 7

2016-11-13 20:21  
47 Ронін / 47 Ronin (2013) 1080p 3D [HalfOverUnder] Ukr(MIC)/Eng | Sub Ukr/Eng

47 Ронін / 47 Ronin (2013) 1080p 3D [HalfOverUnder] Ukr(MIC)/Eng | Sub Ukr/Eng
Український постер



Жанр: історичний, екшн, фентезі, пригодницький
Країна: США



Кінокомпанія: H2F Entertainment, Mid Atlantic Films, Moving Picture Company (MPC)
Режисер: Карл Рінш / Carl Rinsch
Актори: Кіану Рівз / Keanu Reeves, Хіроюкі Санада / Hiroyuki Sanada, Ко Шибасакі / Kou Shibasaki, Таданобу Асано / Tadanobu Asano, Мін Танака / Min Tanaka, Джин Аканіші / Jin Akanishi, Масаесі Ханеда / Masayoshi Haneda та інші

Сюжет:
47 самураїв, після того, як було вбито їхнього господаря, дали клятву помститися за його смерть. Для того, щоб їх не помітили, роніни розчинилися серед люду і почали готувати свій план помсти.


Тривалість: 01:58:34
Якість: 1080p 3D [HalfOverUnder]
Відео:
кодек:
розмір кадру: 1920x1080
бітрейт: 9093 Кбіт/с

Аудіо # 1:
мова: українська
переклад: професійний дубльований | Mic
кодек: 2.0
бітрейт: 192 kbps

Аудіо # 2:
мова: англійська
переклад: оригінал
кодек: 5.1
бітрейт: 1536 kbps

Субтитри:
мова: українська
тип: програмні (м'які)
формат: *.srt

Субтитри:
мова: англійська
тип: програмні (м'які)
формат: *.srt
MediaInfo
General
Unique ID : 187459366344481627710771929789571928138 (0x8D075C56D39EBBAEBAB8B0C90532104A)
Complete name : G:\films\47 Ronin (2013) 1080p 3D.mkv
Format : Matroska
Format version : Version 4 / Version 2
File size : 8.95 GiB
Duration : 1h 58mn
Overall bit rate : 10.8 Mbps
Movie name : 47 Ronin (2013) 1080p Ukr(MIC)/Eng | Sub Ukr Eng | 3D
Encoded date : UTC 2016-11-13 17:23:27
Writing application : mkvmerge v9.4.2 ('So High') 64bit
Writing library : libebml v1.3.4 + libmatroska v1.4.5
Cover : Yes
Attachments : cover.jpg

Video
ID : 1
Format : AVC
Format/Info : Advanced Video Codec
Format profile : [email protected]
Format settings, CABAC : Yes
Format settings, ReFrames : 4 frames
Codec ID : V_MPEG4/ISO/AVC
Duration : 1h 58mn
Bit rate : 9 093 Kbps
Width : 1 920 pixels
Height : 1 080 pixels
Display aspect ratio : 16:9
Frame rate mode : Constant
Frame rate : 23.976 (23976/1000) fps
Original frame rate : 23.976 (24000/1001) fps
Color space : YUV
Chroma subsampling : 4:2:0
Bit depth : 8 bits
Scan type : Progressive
Bits/(Pixel*Frame) : 0.183
Stream size : 7.54 GiB (84%)
Title : 47.ронинов-47.Ronin.(2013)..[1080p].3D
Writing library : core 129 r2245 bc13772
Encoding settings : cabac=1 / ref=4 / deblock=1:-3:-3 / analyse=0x3:0x113 / me=umh / subme=10 / psy=1 / psy_rd=1.00:0.15 / mixed_ref=1 / me_range=32 / chroma_me=1 / trellis=2 / 8x8dct=1 / cqm=0 / deadzone=21,11 / fast_pskip=1 / chroma_qp_offset=-3 / threads=12 / lookahead_threads=2 / sliced_threads=0 / nr=0 / decimate=1 / interlaced=0 / bluray_compat=0 / constrained_intra=0 / bframes=8 / b_pyramid=2 / b_adapt=2 / b_bias=0 / direct=3 / weightb=1 / open_gop=0 / weightp=2 / keyint=250 / keyint_min=23 / scenecut=40 / intra_refresh=0 / rc_lookahead=60 / rc=crf / mbtree=1 / crf=17.0 / qcomp=0.70 / qpmin=0 / qpmax=69 / qpstep=4 / vbv_maxrate=40000 / vbv_bufsize=30000 / crf_max=0.0 / nal_hrd=none / frame-packing=4 / ip_ratio=1.40 / aq=1:0.70
Language : English
Default : Yes
Forced : No

Audio #1
ID : 2
Format : AC-3
Format/Info : Audio Coding 3
Mode extension : CM (complete main)
Format settings, Endianness : Big
Codec ID : A_AC3
Duration : 1h 58mn
Bit rate mode : Constant
Bit rate : 192 Kbps
Channel(s) : 2 channels
Channel positions : Front: L R
Sampling rate : 48.0 KHz
Frame rate : 31.250 fps (1536 spf)
Compression mode : Lossy
Stream size : 163 MiB (2%)
Title : Ukranian MIC
Language : Ukrainian
Default : Yes
Forced : Yes

Audio #2
ID : 3
Format :
Format/Info : Digital Theater Systems
Mode : 16
Format settings, Endianness : Big
Codec ID : A_DTS
Duration : 1h 58mn
Bit rate mode : Constant
Bit rate : 1 509 Kbps
Channel(s) : 6 channels
Channel positions : Front: L C R, Side: L R, LFE
Sampling rate : 48.0 KHz
Frame rate : 93.750 fps (512 spf)
Bit depth : 24 bits
Compression mode : Lossy
Delay relative to video : 11ms
Stream size : 1.25 GiB (14%)
Title : 5.1 / 1536 kbps / Original
Language : English
Default : No
Forced : No

Text #1
ID : 4
Format : UTF-8
Codec ID : S_TEXT/UTF8
Codec ID/Info : UTF-8 Plain Text
Duration : 1h 47mn
Bit rate : 41 bps
Count of elements : 668
Stream size : 32.6 KiB (0%)
Title : Full
Language : Ukrainian
Default : No
Forced : No

Text #2
ID : 5
Format : UTF-8
Codec ID : S_TEXT/UTF8
Codec ID/Info : UTF-8 Plain Text
Duration : 1h 47mn
Bit rate : 23 bps
Count of elements : 680
Stream size : 18.6 KiB (0%)
Title : Full
Language : English
Default : No
Forced : No
Скріншоти



Джерело: &
Особиста оцінка: 8 - мені сподобалося
За доріжку подяка пану patriot2305

Відео для перегляду на 3D обладнанні!


 Трекер:    Зареєстрований   

Завантажити / скачати фільм українською



відео для новачків



 Зареєстрований:   2016-11-13 20:24
 Розмір:   8.95 GB 
 Оцінка фільму:   8/10 (Голосів: 1)
   
Інші релізи
   47 Ронін / 47 Ronin (2013) 1080p Ukr(MIC)/Eng | Sub Eng 11FrYkT  4 / 0   8.9 GB   2014-04-10 14:51 
   47 Ронін / 47 Ronin (2013) AVC Ukr(MIC)/Eng patriot2305  10 / 0   2.69 GB   2014-04-10 11:18 
   47 Ронін / 47 Ronin (2013) 720p Ukr(MIC)/Eng | Sub Eng 11FrYkT  4 / 0   4.74 GB   2014-04-10 08:11 
   47 Ронін / 47 Ronin (2013) | Mic patriot2305  11 / 0   1.45 GB   2014-04-10 04:38 
igor911 
Відео Гуртом
Відео Гуртом


З нами з: 18.01.08
Востаннє: 06.12.16
Повідомлень: 5153

2016-11-13 20:41  
RushPill, за Правилами, у розділі HD скріншоти мають бути у форматі png.
RushPill 
Новенький


З нами з: 12.01.16
Востаннє: 24.11.16
Повідомлень: 7

2016-11-13 21:55  
igor911 написано:
за Правилами, у розділі HD скріншоти мають бути у форматі png.

Виправив. І дякую за допомогу у оформленніHappy

Ваш часовий пояс: GMT + 2 Години

Нова тема   Відповісти