Завантажити та скачати торренти українською


Кучерявка Сью / Curly Sue (1991) 1080p 2xUkr/Eng | Sub Eng

Нові коментарі

Нова тема   Відповісти
Автор Повідомлення
Babamin 
Новенький


З нами з: 29.12.15
Востаннє: 07.12.16
Повідомлень: 3

2016-11-13 19:24  
Кучерявка Сью / Curly Sue (1991) 1080p 2xUkr/Eng | Sub Eng



Жанр: Комедія, мелодрама
Країна: США



Кінокомпанія: Hughes Entertainment, Warner Bros. Pictures
Режисер: Джон Х’юз
Актори: Джеймс Белуші, Келлі Лінч, Елісен Портер, Джон Гец, Фред Долтон Томпсон, Кемерон Тор

Сюжет:
Бродягу-афериста Білла Дансера та кмітливе кучеряве маля-сироту, що перебуває на його піклуванні, доля закинула в саме серце Чикаго. Цього разу Біллу посміхнулася удача: його необразливе шахрайство приводить їх з бездомного життя у розкішний особняк...

Тривалість: 01:41:58
Якість: 1080p (Amazon)

Відео:
кодек:
розмір кадру: 1920 х 1080
бітрейт: 13100 кб/с

Аудіо # 1:
мова: українська
переклад: багатоголосий закадровий
кодек: 2.0
бітрейт: 192 кб/с

Аудіо # 2:
мова: українська
переклад: багатоголосий закадровий
кодек: 2.0
бітрейт: 192 кб/с

Аудіо # 3:
мова: англійська
переклад: оригінал
кодек: 5.1
бітрейт: 384 кб/с

Субтитри:
мова: англійська
тип: програмні (м'які)
формат: *.srt
MediaInfo:
General
Complete name : Curly.Sue.(1991)..1080p.[2xukr, eng].mkv
Format : Matroska
Format version : Version 4 / Version 2
File size : 10.1 GiB
Duration : 1h 41mn
Overall bit rate mode : Variable
Overall bit rate : 14.1 Mbps
Movie name : Curly.Sue.1991..1080p.[2xukr, eng].HURTOM
Encoded date : UTC 2016-11-13 16:11:45
Writing application : mkvmerge v7.1.0 ('Good Love') 64bit built on Jul 27 2014 13:06:55
Writing library : libebml v1.3.0 + libmatroska v1.4.1
DURATION : 01:41:58.432000000
NUMBER_OF_FRAMES : 191201
NUMBER_OF_BYTES : 293684736
_STATISTICS_WRITING_APP : mkvmerge v7.1.0 ('Good Love') 64bit built on Jul 27 2014 13:06:55
_STATISTICS_WRITING_DATE_UT : 2016-11-13 16:11:45
_STATISTICS_TAGS : BPS DURATION NUMBER_OF_FRAMES NUMBER_OF_BYTES

Video
ID : 1
Format : AVC
Format/Info : Advanced Video Codec
Format profile : [email protected]
Format settings, CABAC : Yes
Format settings, ReFrames : 4 frames
Codec ID : V_MPEG4/ISO/AVC
Duration : 1h 41mn
Bit rate mode : Variable
Bit rate : 13.1 Mbps
Maximum bit rate : 15.0 Mbps
Width : 1 920 pixels
Height : 1 080 pixels
Display aspect ratio : 16:9
Frame rate mode : Constant
Frame rate : 23.976 fps
Color space : YUV
Chroma subsampling : 4:2:0
Bit depth : 8 bits
Scan type : Progressive
Bits/(Pixel*Frame) : 0.263
Stream size : 9.31 GiB (93%)
Title : Curly.Sue.(1991)..1080p - Amazon
Language : English
Default : Yes
Forced : No
Color range : Limited
Color primaries : BT.709
Transfer characteristics : BT.709
Matrix coefficients : BT.709

Audio #1
ID : 2
Format : AC-3
Format/Info : Audio Coding 3
Mode extension : CM (complete main)
Format settings, Endianness : Big
Codec ID : A_AC3
Duration : 1h 41mn
Bit rate mode : Constant
Bit rate : 192 Kbps
Channel(s) : 2 channels
Channel positions : Front: L R
Sampling rate : 48.0 KHz
Compression mode : Lossy
Stream size : 140 MiB (1%)
Title : Новий канал (багатоголосий закадровий)
Language : Ukrainian
Default : Yes
Forced : No

Audio #2
ID : 3
Format : AC-3
Format/Info : Audio Coding 3
Mode extension : CM (complete main)
Format settings, Endianness : Big
Codec ID : A_AC3
Duration : 1h 41mn
Bit rate mode : Constant
Bit rate : 192 Kbps
Channel(s) : 2 channels
Channel positions : Front: L R
Sampling rate : 48.0 KHz
Compression mode : Lossy
Stream size : 140 MiB (1%)
Title : IHTEP (багатоголосий закадровий)
Language : Ukrainian
Default : No
Forced : No

Audio #3
ID : 4
Format : AC-3
Format/Info : Audio Coding 3
Mode extension : CM (complete main)
Format settings, Endianness : Big
Codec ID : A_AC3
Duration : 1h 41mn
Bit rate mode : Constant
Bit rate : 384 Kbps
Channel(s) : 6 channels
Channel positions : Front: L C R, Side: L R, LFE
Sampling rate : 48.0 KHz
Compression mode : Lossy
Stream size : 280 MiB (3%)
Language : English
Default : No
Forced : No

Text
ID : 5
Format : UTF-8
Codec ID : S_TEXT/UTF8
Codec ID/Info : UTF-8 Plain Text
Title : full
Language : English
Default : Yes
Forced : No
Скріншоти:












Подяка пану Breniak за доріжку & пану dbdeveloper за доріжку
Зведення звуку: Babamin


Срібний реліз (на рейтинг впливає 50% завантаженого)
 Трекер:    Зареєстрований   

Завантажити / скачати фільм українською



відео для новачків



 Зареєстрований:   2016-11-13 19:24
 Розмір:   10.06 GB 
 Оцінка фільму:   9.8/10 (Голосів: 5)
   
Інші релізи
   Кучерявка Сью / Curly Sue (1991) [MP4, 640x] apvAltisimo  0 / 0   658 MB   2015-10-13 13:51 
   Кучерявка Сью / Curly Sue (1991) 2xUkr/Eng Breniak  8 / 0   2.19 GB   2012-12-27 00:25 
mutomba 
Частий відвідувач


З нами з: 20.10.13
Востаннє: 07.12.16
Повідомлень: 39

2016-11-17 22:12  
Обожнюю це кіно! Дякую за реліз!
Ваш часовий пояс: GMT + 2 Години

Нова тема   Відповісти