Завантажити та скачати торренти українською


Багато галасу з нічого (Багато галасу даремно) / Much Ado About Nothing (1993) 1080p 2xUkr/Eng | Sub Eng

Нові коментарі

Нова тема   Відповісти
Автор Повідомлення
Anonymous 







2016-11-13 19:17  
Багато галасу з нічого / Багато галасу даремно / Much Ado About Nothing (1993) 1080p 2xUkr/Eng | Sub Eng

Багато галасу з нічого (Багато галасу даремно) / Much Ado About Nothing (1993) 1080p 2xUkr/Eng | Sub Eng
Альтернативні постери





Жанр: драма, мелодрама, комедія
Країна: Велика Британія, США



Кінокомпанія: Renaissance Films, American Playhouse Theatrical Films, BBC Films
Режисер: Кенет Брена / Kenneth Branagh
Актори: Кенет Брена / Kenneth Branagh, Майкл Кітон / Michael Keaton, Роберт Шон Леонард / Robert Sean Leonard, Кіану Рівз / Keanu Reeves, Емма Томпсон / Emma Thompson, Дензел Вашинґтон / Denzel Washington, Річард Брірс / Richard Briers, Кейт Бекінсейл / Kate Beckinsale, Імелда Стонтон / Imelda Staunton, Джиммі Юїл / Jimmy Yuill та інші

Сюжет:
Молода пара - Геро і Клаудіо - планує одружитися через тиждень. Час іде, і вони укладають парі з доном Педро, що зведуть переконаного холостяка Бенедикта з в'їдливою дамочкою Беатріче, його давньою знайомою. Тим часом лиходій дон Джон хоче розладнати весілля Клаудіо, звинувативши Геро в невірності. І, здавалося б, до істини вже не докопатися, але, на щастя, все це лише тільки галас... галас з нічого.
Екранізація однієї з найкращих комедій Шекспіра.


Рейтинг MPAA: PG-13 - дітям до 13 років перегляд не бажаний
Вікова категорія: 12+

Тривалість: 01:50:58
Якість: 1080p
Відео:
кодек:
розмір кадру: 1920 х 1040
бітрейт: 9819 Кбіт/с

Аудіо # 1:
мова: українська
переклад: багатоголосий закадровий
кодек: 2.0
бітрейт: 192 Кбіт/с

Аудіо # 2:
мова: українська
переклад: двоголосий закадровий
ролі озвучили: Людмила Ардельян і Юрій Кудрявець
кодек: 2.0
бітрейт: 192 Кбіт/с

Аудіо # 3:
мова: англійська
переклад: оригінал
кодек: 2.0
бітрейт: 256 Кбіт/с

Субтитри:
мова: англійська
тип: програмні (м'які)
формат: *.srt
MediaInfo
Код:
Complete name               : Much Ado About Nothing (1993) [2xUkr,Eng sub.Eng] 1080p [Hurtom].mkv
Format                      : Matroska
Format version              : Version 4 / Version 2
File size                   : 8.11 GiB
Duration                    : 1 h 50 min
Overall bit rate            : 10.5 Mb/s

Video
ID                          : 1
Format                      : AVC
Format/Info                 : Advanced Video Codec
Format profile              : [email protected]
Format settings, CABAC      : Yes
Format settings, ReFrames   : 4 frames
Codec ID                    : V_MPEG4/ISO/AVC
Duration                    : 1 h 50 min
Bit rate                    : 9 819 kb/s
Width                       : 1 920 pixels
Height                      : 1 040 pixels
Display aspect ratio        : 1.85:1
Frame rate mode             : Constant
Frame rate                  : 23.976 (24000/1001) FPS
Color space                 : YUV
Chroma subsampling          : 4:2:0
Bit depth                   : 8 bits
Scan type                   : Progressive
Bits/(Pixel*Frame)          : 0.205
Stream size                 : 7.61 GiB (94%)
Title                       : Багато галасу з нічого / Багато галасу даремно / Much Ado About Nothing (1993) 1080p [CHD-hahay0yo]
Writing library             : core 80 r1376M 3feaec2
Encoding settings           : cabac=1 / ref=5 / deblock=1:-3:-3 / analyse=0x3:0x113 / me=umh / subme=9 / psy=1 / psy_rd=1.0:0.0 / mixed_ref=1 / me_range=32 / chroma_me=1 / trellis=0 / 8x8dct=1 / cqm=0 / deadzone=21,11 / fast_pskip=1 / chroma_qp_offset=-2 / threads=12 / sliced_threads=0 / slices=4 / nr=0 / decimate=1 / mbaff=0 / constrained_intra=0 / bframes=6 / b_pyramid=1 / b_adapt=1 / b_bias=0 / direct=1 / wpredb=1 / wpredp=2 / keyint=24 / keyint_min=2 / scenecut=40 / rc_lookahead=24 / rc=2pass / mbtree=1 / bitrate=9819 / ratetol=1.0 / qcomp=0.60 / qpmin=10 / qpmax=51 / qpstep=4 / cplxblur=20.0 / qblur=0.5 / ip_ratio=1.40 / aq=1:1.00
Language                    : English
Default                     : Yes
Forced                      : No

Audio #1
ID                          : 2
Format                      : AC-3
Format/Info                 : Audio Coding 3
Mode extension              : CM (complete main)
Format settings, Endianness : Big
Codec ID                    : A_AC3
Duration                    : 1 h 50 min
Bit rate mode               : Constant
Bit rate                    : 192 kb/s
Channel(s)                  : 2 channels
Channel positions           : Front: L R
Sampling rate               : 48.0 kHz
Frame rate                  : 31.250 FPS (1536 spf)
Compression mode            : Lossy
Stream size                 : 152 MiB (2%)
Title                       : MVO [AMC] 2.0 192 Kbps [Hurtom-Arsenfpu,slavik_v_z]
Language                    : Ukrainian
Default                     : Yes
Forced                      : No

Audio #2
ID                          : 3
Format                      : AC-3
Format/Info                 : Audio Coding 3
Mode extension              : CM (complete main)
Format settings, Endianness : Big
Codec ID                    : A_AC3
Duration                    : 1 h 50 min
Bit rate mode               : Constant
Bit rate                    : 192 kb/s
Channel(s)                  : 2 channels
Channel positions           : Front: L R
Sampling rate               : 48.0 kHz
Frame rate                  : 31.250 FPS (1536 spf)
Compression mode            : Lossy
Stream size                 : 152 MiB (2%)
Title                       : DVO [ICTV] 2.0 192 Kbps [Hurtom-omm,Tanat13]
Language                    : Ukrainian
Default                     : No
Forced                      : No

Audio #3
ID                          : 4
Format                      :
Format/Info                 : Digital Theater Systems
Mode                        : 16
Format settings, Endianness : Big
Codec ID                    : A_DTS
Duration                    : 1 h 50 min
Bit rate mode               : Constant
Bit rate                    : 255 kb/s
Channel(s)                  : 2 channels
Channel positions           : Front: L R
Sampling rate               : 48.0 kHz
Frame rate                  : 93.750 FPS (512 spf)
Bit depth                   : 24 bits
Compression mode            : Lossy
Stream size                 : 202 MiB (2%)
Title                       : Original, 2.0 256 Kbps
Language                    : English
Default                     : No
Forced                      : No

Text
ID                          : 5
Format                      : UTF-8
Codec ID                    : S_TEXT/UTF8
Codec ID/Info               : UTF-8 Plain Text
Duration                    : 1 h 46 min
Bit rate                    : 66 b/s
Count of elements           : 1362
Stream size                 : 51.8 KiB (0%)
Language                    : English
Default                     : No
Forced                      : No


Джерело: &
Подяки: за доріжку з AMC - п.Arsenfpu (синхронізація) та slavik_v_z (запис з ТБ); за доріжку ICTV - п.omm (синхронізація) та Tanat13 (запис з ТБ).

ЗАЛИШАЙТЕСЬ ЯКОМОГА ДОВШЕ НА РОЗДАЧІ
ЗАВАНТАЖИВ САМ - ДАЙ ЗАВАНТАЖИТИ ІНШИМ!


Срібний реліз (на рейтинг впливає 50% завантаженого)
 Трекер:    Зареєстрований   

Завантажити / скачати фільм українською



відео для новачків



 Зареєстрований:   2016-11-13 20:03
 Розмір:   8.11 GB 
 Оцінка фільму:   3.6/10 (Голосів: 14)
   
Ваш часовий пояс: GMT + 2 Години

Нова тема   Відповісти