Завантажити та скачати торренти українською


Мандри | Дискографія [5 альбомів] (2000-2007) [FLAC] | Folk Rock

Нові коментарі

Нова тема   Відповісти
Автор Повідомлення
plyrvt 
VIP


З нами з: 03.12.08
Востаннє: 09.12.16
Повідомлень: 398

2009-10-05 00:21  
Мандри | Дискографія [5 альбомів] (2000-2007) [FLAC] | Folk Rock



Стиль: Rock, Folk
Країна, місто: Україна, Київ
Сайти: Офіційний сайт
Видавець: Lavina Music, Караван рекордз
Виконавці:
Сергій Фоменко (Фома) - вокал, гітара;
Леонід Бєлєй (Льоня) - акордеон;
Сергій Чегодаєв (Чиж) - бас-гітара;
Андрій Занько - барабани;
Салман Салманов Мамед огли - перкусія
Альбоми:
2000 - Русалки


01 - Легенда про Іванка та Одарку - 2:58
02 - Хай не буде тобі сумно - 5:12
03 - Перекотиполе - 5:31
04 - Русалки - 6:47
05 - Крила - 3:29

Тривалість: 00:23:56
Видавець: Караван рекордз
EAC Log
EAC extraction logfile from 22. March 2006, 11:16 for CD
MANDRY / Rusalky

Used drive : HL-DT-STDVDRAM GSA-4082B Adapter: 1 ID: 0
Read mode : Secure with NO C2, accurate stream, disable cache
Combined read/write offset correction : 0
Overread into Lead-In and Lead-Out : No

Used output format : Internal WAV Routines
44.100 Hz; 16 Bit; Stereo

Other options :
Fill up missing offset samples with silence : Yes
Delete leading and trailing silent blocks : No
Native Win32 interface for Win NT & 2000

Range status and errors
Selected range
Filename E:\MANDRY.-.Rusalky\MANDRY - Rusalky.wav

Peak level 100.0 %
Range quality 100.0 %
CRC 49F97838
Copy OK

No errors occured

End of status report
Audiochecker Log
AUDIOCHECKER v2.0 beta (build 457) - by Dester - [email protected]
~~~~~~~~~~~~~~~~~~~~~~~~~~~~~~~~~~
-=== НЕ РЕДАКТИРУЙТЕ ЭТОТ ФАЙЛ! ===-

Путь: ...\2000 - Русалки

1 -=- 01 - Легенда про Іванка та Одарку.wav -=- CDDA (100%)
2 -=- 02 - Хай не буде тобі сумно.wav -=- CDDA (100%)
3 -=- 03 - Перекотиполе.wav -=- CDDA (100%)
4 -=- 04 - Русалки.wav -=- CDDA (100%)
5 -=- 05 - Крила.wav -=- CDDA (100%)

Сводка 100,00% CDDA

248772164
2002 - Романсеро про нiжну королеву


01 - Романсеро про нiжну королеву - 2:53
02 - Гоголя - 4:20
03 - Дочка мельника - 3:21
04 - Ряба кобила - 4:18
05 - Картата сорочка - 3:29
06 - Рiздв'яна нiч - 3:08
07 - Ялинка - 2:00
08 - Вiруте - 4:01
09 - Думи - 5:13
10 - Човен - 3:38
11 - Старий шинок - 4:28
12 - Танок - 3:40
13 - Орися - 2:15
14 - Старий шинок (вальс-шансон) - 4:26
15 - Amore mio - 3:19

Тривалість: 00:54:28
Видавець: Lavina Music
Data CD

Якість:
мова: українська

KS_1.mpg (Тривалість: 00:03:49, бітрейт відео 1150 кбіт/сек)
кодек: MPEG 1 (VCD)
розмір кадру: 352x288

Аудіо: мова: українська
кодек: Mpeg-1 audio Layer 2, 44100 Гц
бітрейт: 224 кбіт/сек




romansero.avi (Тривалість: 00:03:18, бітрейт відео 2187 кбіт/сек)
кодек: Radius Cinepak
розмір кадру: 320*240

Аудіо:
кодек: PCM, 22050 Гц
бітрейт: 352 кбіт/сек


EAC Log
Exact Audio Copy V0.99 prebeta 4 from 23. January 2008

Звіт EAC про видобування, котре виконане 29. грудня 2008, 17:18

Мандри / Романсеро про нiжну королеву

Дисковод: Optiarc DVD RW AD-5200A Adapter: 1 ID: 0

Режим читання : Точний
Використати точний потік : Так
Вимкнути аудіо кеш : Так
Застосувати мітки C2 : Ні

Корекція зміщення при читанні : 48
Екстрачитання областей Lead-in і Lead-out : Ні
Заповнення пропущених семплів тишею : Так
Видалення блоків з тишею на початку і кінці : Ні
При вирахуванні CRC використовувались нульові семпли : Так
Використаний інтерфейс : 'Рідний' Win32-інтерфейс для Win NT/2000

Застосований вихідний формат : Кодер Користувача
Обраний бітрейт : 1024 kBit/s
Якість : Високий
Додати тег ID3 : Ні
Компресор командного рядка : C:\Program Files\Exact Audio Copy\wavpack.exe
Додаткові параметри командного рядка : -w "Artist=%a" -w "Title=%t" -w "Album=%g" -w "Year=%y" -w "Track=%n" -w "Genre=%m" -h -m %s %d

TOC видобутого CD

Трек | Старт | Довжина | Початковий сектор | Кінцевий сектор
------------------------------------------------------------------
1 | 0:00.00 | 2:52.49 | 0 | 12948
2 | 2:52.49 | 4:20.22 | 12949 | 32470
3 | 7:12.71 | 3:21.17 | 32471 | 47562
4 | 10:34.13 | 4:18.03 | 47563 | 66915
5 | 14:52.16 | 3:29.10 | 66916 | 82600
6 | 18:21.26 | 3:07.69 | 82601 | 96694
7 | 21:29.20 | 1:59.44 | 96695 | 105663
8 | 23:28.64 | 4:00.71 | 105664 | 123734
9 | 27:29.60 | 5:12.62 | 123735 | 147196
10 | 32:42.47 | 3:37.48 | 147197 | 163519
11 | 36:20.20 | 4:27.66 | 163520 | 183610
12 | 40:48.11 | 3:39.67 | 183611 | 200102
13 | 44:28.03 | 2:14.54 | 200103 | 210206
14 | 46:42.57 | 4:26.26 | 210207 | 230182
15 | 51:09.08 | 3:18.68 | 230183 | 245100
16 | 57:00.01 | 11:12.14 | 256501 | 306914

Статус діапазону і помилки

Обраний діапазон

Ім'я файлу E:\Lossless\Мандри\2002 - Романсеро про ніжну королеву\Мандри - Романсеро про нiжну королеву.wav

Піковий рівень 100.0 %
Якість діапазону 100.0 %
CRC тесту 4BAAE5EA
CRC копії 4BAAE5EA
Копіювання... OK

Помилки не траплялися

Кінець звіту
Audiochecker Log
AUDIOCHECKER v2.0 beta (build 457) - by Dester - [email protected]
~~~~~~~~~~~~~~~~~~~~~~~~~~~~~~~~~~
-=== НЕ РЕДАКТИРУЙТЕ ЭТОТ ФАЙЛ! ===-

Путь: ...\2002 - Романсеро про нiжну королеву

01 -=- 01 - Романсеро про нiжну королеву.wav -=- CDDA (100%)
02 -=- 02 - Гоголя.wav -=- CDDA (100%)
03 -=- 03 - Дочка мельника.wav -=- CDDA (100%)
04 -=- 04 - Ряба кобила.wav -=- CDDA (100%)
05 -=- 05 - Картата сорочка.wav -=- CDDA (100%)
06 -=- 06 - Рiздв'яна нiч.wav -=- CDDA (100%)
07 -=- 07 - Ялинка.wav -=- CDDA (100%)
08 -=- 08 - Вiруте.wav -=- CDDA (99%)
09 -=- 09 - Думи.wav -=- CDDA (99%)
10 -=- 10 - Човен.wav -=- CDDA (100%)
11 -=- 11 - Старий шинок.wav -=- CDDA (100%)
12 -=- 12 - Танок.wav -=- CDDA (100%)
13 -=- 13 - Орися.wav -=- CDDA (100%)
14 -=- 14 - Старий шинок (вальс-шансон).wav -=- CDDA (100%)
15 -=- 15 - Amore mio.wav -=- CDDA (100%)

Сводка 99,87% CDDA

103682740
2002 - Легенда про Іванка та Одарку


01 - Орися - 1:59
02 - Ой, чий то кінь стоїть... - 4:19
03 - Синій жупан - 3:17
04 - Вітре Цигане - 5:21
05 - Магдалєна - 4:54
06 - Калина - 3:55
07 - Лети душа - 4:06
08 - Легенда про Іванка та Одарку - 2:57
09 - Хай не буде тобі сумно - 4:54
10 - Крила - 3:15
11 - Коломийка Дракула - 3:31
12 - Колиска - 4:49

Тривалість: 00:47:17
Видавець: Lavina Music
EAC Log
Exact Audio Copy V0.99 prebeta 4 from 23. January 2008

Звіт EAC про видобування, котре виконане 5. січня 2009, 17:56

Мандри / Легенда про Іванка та Одарку

Дисковод: Optiarc DVD RW AD-5200A Adapter: 1 ID: 0

Режим читання : Точний
Використати точний потік : Так
Вимкнути аудіо кеш : Так
Застосувати мітки C2 : Ні

Корекція зміщення при читанні : 48
Екстрачитання областей Lead-in і Lead-out : Ні
Заповнення пропущених семплів тишею : Так
Видалення блоків з тишею на початку і кінці : Ні
При вирахуванні CRC використовувались нульові семпли : Так
Використаний інтерфейс : 'Рідний' Win32-інтерфейс для Win NT/2000

Застосований вихідний формат : Кодер Користувача
Обраний бітрейт : 1024 kBit/s
Якість : Високий
Додати тег ID3 : Ні
Компресор командного рядка : C:\Program Files\Exact Audio Copy\wavpack.exe
Додаткові параметри командного рядка : -w "Artist=%a" -w "Title=%t" -w "Album=%g" -w "Year=%y" -w "Track=%n" -w "Genre=%m" -h -m %s %d

TOC видобутого CD

Трек | Старт | Довжина | Початковий сектор | Кінцевий сектор
------------------------------------------------------------------
1 | 0:00.00 | 1:59.36 | 0 | 8960
2 | 1:59.36 | 4:19.14 | 8961 | 28399
3 | 6:18.50 | 3:17.16 | 28400 | 43190
4 | 9:35.66 | 5:21.25 | 43191 | 67290
5 | 14:57.16 | 4:53.54 | 67291 | 89319
6 | 19:50.70 | 3:55.28 | 89320 | 106972
7 | 23:46.23 | 4:06.10 | 106973 | 125432
8 | 27:52.33 | 2:56.69 | 125433 | 138701
9 | 30:49.27 | 4:54.19 | 138702 | 160770
10 | 35:43.46 | 3:14.49 | 160771 | 175369
11 | 38:58.20 | 3:30.63 | 175370 | 191182
12 | 42:29.08 | 4:48.58 | 191183 | 212840

Статус діапазону і помилки

Обраний діапазон

Ім'я файлу E:\Lossless\Мандри\2002 - Легенда про Іванка та Одарку\Мандри - Легенда про Іванка та Одарку.wav

Піковий рівень 97.7 %
Якість діапазону 100.0 %
CRC тесту B4FA58D0
CRC копії B4FA58D0
Копіювання... OK

Помилки не траплялися

Кінець звіту
Audiochecker Log
AUDIOCHECKER v2.0 beta (build 457) - by Dester - [email protected]
~~~~~~~~~~~~~~~~~~~~~~~~~~~~~~~~~~
-=== НЕ РЕДАКТИРУЙТЕ ЭТОТ ФАЙЛ! ===-

Путь: ...\2002 - Легенда про Іванка та Одарку

01 -=- 01 - Орися.wav -=- CDDA (100%)
02 -=- 02 - Ой, чий то кінь стоїть.wav -=- CDDA (100%)
03 -=- 03 - Синій жупан.wav -=- CDDA (100%)
04 -=- 04 - Вітре Цигане.wav -=- CDDA (100%)
05 -=- 05 - Магдалєна.wav -=- CDDA (100%)
06 -=- 06 - Калина.wav -=- CDDA (100%)
07 -=- 07 - Лети душа.wav -=- CDDA (100%)
08 -=- 08 - Легенда про Іванка та Одарку.wav -=- CDDA (100%)
09 -=- 09 - Хай не буде тобі сумно.wav -=- CDDA (100%)
10 -=- 10 - Крила.wav -=- CDDA (100%)
11 -=- 11 - Коломийка Дракула.wav -=- CDDA (100%)
12 -=- 12 - Колиска.wav -=- CDDA (100%)

Сводка 100,00% CDDA

261897540
2006 - Дорога


01 - Дорога - 3:21
02 - Коханочка - 4:32
03 - Місто - 3:49
04 - Любов - 2:59
05 - Ти в серці моїм - 4:42
06 - Тінга - Лінга - 4:15
07 - Ріо Ріта - 4:02
08 - Косачіна - 3:13
09 - Зозуля - 3:47
10 - Коло млину - 3:10
11 - Гілка - 4:35
12 - Не спи моя рідна земля - 4:39

Тривалість: 00:47:03
Видавець: Lavina Music
EAC Log
Отчет EAC об извлечении из 16. Ноябрь 2008, 9:31 для CD
Mандри / Doroha

Дисковод: SONY DVD RW AW-G170A Adapter: 0 ID: 0
Режим чтения: Точный: C2 - нет, точный поток - да, отключение кэша - да
Коррекция смещения при чтении: 48
Экстрачтение Lead-in и Lead-out : Нет

Выходной формат: Внутренние WAV-операции
44.100 Гц; 16 бит; стерео

Другие параметры:
Заполнять пропущенные сэмплы тишиной : Да
Удалить блоки с тишиной в начале и конце : Нет
'Родной' Win32-интерфейс для Win NT/2000

Статус диапазона и ошибки
Выбранный диапазон
Имя файла I:\LOSSLESS Божок\Mандри.wav

Пиковый уровень 99.9 %
Качество диапазона 100.0 %
CRC 75D8DC96
Копирование... OK

Ошибок не произошло

Конец отчета
Audiochecker Log
AUDIOCHECKER v2.0 beta (build 457) - by Dester - [email protected]
~~~~~~~~~~~~~~~~~~~~~~~~~~~~~~~~~~
-=== НЕ РЕДАКТИРУЙТЕ ЭТОТ ФАЙЛ! ===-

Путь: ...\2006 - Дорога кличе нас у мандри

01 -=- 01 - Дорога.wav -=- CDDA (100%)
02 -=- 02 - Коханочка.wav -=- CDDA (100%)
03 -=- 03 - Місто.wav -=- CDDA (100%)
04 -=- 04 - Любов.wav -=- CDDA (100%)
05 -=- 05 - Ти в серці моїм.wav -=- CDDA (100%)
06 -=- 06 - Тінга - Лінга.wav -=- CDDA (100%)
07 -=- 07 - Ріо Ріта.wav -=- CDDA (100%)
08 -=- 08 - Косачіна.wav -=- CDDA (100%)
09 -=- 09 - Зозуля.wav -=- CDDA (99%)
10 -=- 10 - Коло млину.wav -=- CDDA (100%)
11 -=- 11 - Гілка.wav -=- CDDA (99%)
12 -=- 12 - Не спи моя рідна земля.wav -=- CDDA (100%)

Сводка 99,83% CDDA

152013412
2007 - Мандри у Країні мрій. Live


01 - Хай тобі не буде сумно - 5:56
02 - Легенда про Іванка та Одарку - 3:10
03 - Калина - 3:37
04 - Орися - 2:59
05 - Ой, чий то кінь стоїть - 4:14
06 - Магдалєна - 4:48
07 - Коханочка - 3:38
08 - Коло млину - 3:35
09 - Несе Галя воду - 3:45
10 - Косачіна - 3:15

Тривалість: 00:38:58
Видавець: Lavina Music
EAC Log
Exact Audio Copy V0.99 prebeta 3 from 28. July 2007

EAC extraction logfile from 5. December 2007, 18:27

Mandry / live

Used drive : Optiarc DVD RW AD-7170S Adapter: 4 ID: 0

Read mode : Secure
Utilize accurate stream : Yes
Defeat audio cache : Yes
Make use of C2 pointers : Yes

Combined read/write offset correction : 48
Overread into Lead-In and Lead-Out : No
Fill up missing offset samples with silence : Yes
Delete leading and trailing silent blocks : No
Null samples used in CRC calculations : Yes
Used interface : Installed external ASPI interface

Used output format : Monkey's Audio Lossless Encoder v3.99 DLL
Sample format : High Lossless Compression

TOC of the extracted CD

Track | Start | Length | Start sector | End sector
---------------------------------------------------------
1 | 0:00.00 | 5:56.37 | 0 | 26736
2 | 5:56.37 | 3:10.35 | 26737 | 41021
3 | 9:06.72 | 3:37.11 | 41022 | 57307
4 | 12:44.08 | 2:58.62 | 57308 | 70719
5 | 15:42.70 | 4:14.22 | 70720 | 89791
6 | 19:57.17 | 4:48.17 | 89792 | 111408
7 | 24:45.34 | 3:37.38 | 111409 | 127721
8 | 28:22.72 | 3:35.23 | 127722 | 143869
9 | 31:58.20 | 3:45.05 | 143870 | 160749
10 | 35:43.25 | 3:15.04 | 160750 | 175378

Range status and errors

Selected range

Filename E:\music\Ukrainian\Mandry\Unknown Artist - live.ape

Peak level 95.0 %
Range quality 100.0 %
Copy CRC 27AF6295
Copy OK

No errors occurred

End of status report
Audiochecker Log
AUDIOCHECKER v2.0 beta (build 457) - by Dester - [email protected]
~~~~~~~~~~~~~~~~~~~~~~~~~~~~~~~~~~
-=== НЕ РЕДАКТИРУЙТЕ ЭТОТ ФАЙЛ! ===-

Путь: ...\2007 - У країні мрій (Live)

01 -=- 01 - Хай тобі не буде сумно.wav -=- CDDA (100%)
02 -=- 02 - Легенда про Іванка та Одарку.wav -=- CDDA (100%)
03 -=- 03 - Калина.wav -=- CDDA (100%)
04 -=- 04 - Орися.wav -=- CDDA (100%)
05 -=- 05 - Ой, чий то кінь стоїть.wav -=- CDDA (100%)
06 -=- 06 - Магдалєна.wav -=- CDDA (100%)
07 -=- 07 - Коханочка.wav -=- CDDA (100%)
08 -=- 08 - Коло млину.wav -=- CDDA (100%)
09 -=- 09 - Несе Галя воду.wav -=- CDDA (100%)
10 -=- 10 - Косачіна.wav -=- CDDA (100%)

Сводка 100,00% CDDA

167101764
Тривалість: 03:31:45
Мова: українська
Аудіо-кодек: FLAC
Ріп: image+ Embedded CUE/EAC/audiochecker/cover)
EAC: Secure + Accurate stream + disable cache/C2 + Read offset correction (в 2-му альбомі не виставлені офсети)
Бітрейт: lossless (~878-1015 кбіт/с)
ЗАСТЕРЕЖЕННЯ ЩОДО ФОРМАТУ

В роздачі використано формат вбудованих (embedded) файлів в теги контейнера FLAC.
Вбудовано:
1. Трекліст CUE-sheet (автоматично відкривається в плеєрах що підтримують embedded)
2. cover.jpg (відображається в плеєрах що підтримують embedded)
3. EAC Log (видно в редакторі тегів)
4. Audiochecker log (видно в редакторі тегів)

За рахунок цього на кожен альбом зменшилась кількість файлів з 5 до 1 (крім папки Covers якщо є), а *.flac файл несе повну інформацію в собі і може зручно роздаватися в інших протоколах (FTP, eMule, DC++)

Прохання відписатися щодо такого формату подачі Losless. Якщо він влаштовує - надалі роздачі буду робити в такому форматі.
Додаткова інформація
24 грудня 1997-го року починає свій відлік історія відомої київської групи "Мандри", яка дала в цей день свій перший концерт. В сучасній українській молодіжній культурі група "Мандри" займає своєрідну музичну нішу. Завдяки неповторному синтезу національних українських фольклорних традицій, сучасній ритмічній основі, елементів міського романсу, французького шансону і традицій музики реггей, блюзу та року - група має найрізноманітнішу та різновікову аудиторію слухачів. Незважаючи на хитросплетіння стилів, музика "Мандрів" залишає враження цілісності та неповторності манери виконання; пісні насичені численими образами, але їх емоційність та мелодійність дозволяє зрозуміти пісенну поезію навіть слухачам інших культурних та мовних традицій. Практично всі тексти та музику пише вокаліст гурту - Фома
Якщо Ви справді бажаєте підтримати українське - після прослуховування, якщо музика вам сподобалась, придбайте ліцензійні диски. Підтримаймо вітчизняних виконавців!


Золотий реліз (завантажене не впливає на рейтинг)
 Трекер:    Зареєстрований   

Завантажити / скачати українську музику



відео для новачків



 Зареєстрований:   2009-10-05 14:37
 Розмір:   1.52 GB 
 Оцінка музики:   9.6/10 (Голосів: 41)
   
jinotot 
Почесний оцифрувальник літератури


З нами з: 28.01.09
Востаннє: 04.12.16
Повідомлень: 3235

2009-10-05 03:01  
plyrvt написано:
2006 - Дорога кличе нас у мандри
порядок слів трохи не той Happy
ssTAss 
Модератор музики


З нами з: 05.07.08
Востаннє: 11.12.16
Повідомлень: 10958

2009-10-05 12:23  
plyrvt написано:
1999 - Романсеро про нiжну королеву (перевидання 2002)

читаємо з оф сайту
2000 рік - Романсеро про ніжну королеву
2002 рік - Романсеро про ніжну королеву
Альбоми різняться (обкладинка, відео) і сам гурт позиціонує як інший, тому у Вашому випадку просто пишемо 2002 рік
Дякую за "Мандри" в класній якості

plyrvt 
VIP


З нами з: 03.12.08
Востаннє: 09.12.16
Повідомлень: 398

2009-10-05 12:32  
То як писати не зрозумів.
Оригінальний альбом був випущений
Asteroid records
чи то в 1999 чи то в 2000 році.
Перевидання 2002 року 100% включає старий матеріал без змін, і 0% нового + бонус контент

В цілому, у випадку з будь-якими перевиданнями доцільним при найменуванні папок вважаю збереження реальної хронології, щоб слухач бачив альбоми в тому порядку, в якому їх творили виконавці, а не в тому порядку як бізнесмени запускали штампувальний станок.

ssTAss 
Модератор музики


З нами з: 05.07.08
Востаннє: 11.12.16
Повідомлень: 10958

2009-10-05 12:44  
plyrvt написано:
а не в тому порядку як бізнесмени запускали штампувальний станок.

plyrvt, мушу не погодитись. Зайдіть на їхній оф сайт і побачите хронологію альбомів. Цей альбом, що Ви надали є альбомом 2002 року (не перевидання - так вважає сам гурт).Так, ті самі пісні (без відео бонусів), але так вказує сам гурт (повторююсь). Отож, облишмо сперечання і зробіть виправлення (і в назві також - (2000-2007))

plyrvt 
VIP


З нами з: 03.12.08
Востаннє: 09.12.16
Повідомлень: 398

2009-10-05 13:14  
Цитата:
Зайдіть на їхній оф сайт і побачите хронологію альбомів.

На сайтах виконавців є дві традиції публікації альбомів - вказуючи перевидання (в т.ч. регіональні видання під країну чи регіон) і без такої.

Якби я викладав обидва альбоми (2000 і 2002), то як і на сайті Мандрів - вони були б в папках 2000 і 2002 відповідно (хронологія перегляду і прослуховування не порушується).

Але так як я викладаю лише 1 альбом (дублювати не бачу сенсу оскільки він ідентичний першому, а беру перевидання - бо має бонус контент), то не збираюся порушувати хронологію

jinotot 
Почесний оцифрувальник літератури


З нами з: 28.01.09
Востаннє: 04.12.16
Повідомлень: 3235

2009-10-05 14:00  
plyrvt написано:
Дорога (нас кличе у Мандри)
Я, власне, думав, що альбом має назву "Нас кличе у мандри дорога" (саме так співається у відповідній пісні)... Але оце дивлюся в них на сайті (в дискографії), то там пише просто "Дорога"... Якась невідповідність -- навіщо ж тоді на обкладинці диску зайві слова писати? Happy Морочать людям голову, чесне слово Happy Ох, же ж ці мені офіційні сайти із їхньою "супер-точною" та "супер-грамотною" інформацією Wide grin
І останній альбом мені був відомий під назвою "Мандри в Країні мрій" (в дискографії вони взагалі ніяк не написали його назву -- лише обкладинка, тож читайте як завгодно, проте в новинах (і отут ще) таки знайшов -- все-таки він зветься "Мандри в Країні мрій") Happy
До речі, хто бут тоді на першій Країні мрій, коли цей альбом було записано, той підтвердить -- "Мандри" виступили незабутньо!
О, а той альбом все-таки зветься просто "Дорога" -- читаєм тут.

Але це все деталі... Головне те, що "Мандри" -- це дуже класний гурт, який грає чудову музику Happy
Отож, plyrvt, величезне спасибі за працю і за реліз! Wink (1)

plyrvt 
VIP


З нами з: 03.12.08
Востаннє: 09.12.16
Повідомлень: 398

2009-10-05 14:39  
Прибрав будь-які згадки про "1999/2000 - Романсеро", і про куди там та Дорога кличе.
jinotot 
Почесний оцифрувальник літератури


З нами з: 28.01.09
Востаннє: 04.12.16
Повідомлень: 3235

2009-10-05 15:43  
plyrvt, дякую ще раз!
А звідки це колоритне фото? Це з якогось м'юзиклу, чи мені здається? Хлопці смалять -- не очікував їх побачити у такому амплуа Happy Wide grin

plyrvt 
VIP


З нами з: 03.12.08
Востаннє: 09.12.16
Повідомлень: 398

2009-10-05 15:46  
jinotot
Маланка в стилі рок (Міні-п'єса)




jinotot 
Почесний оцифрувальник літератури


З нами з: 28.01.09
Востаннє: 04.12.16
Повідомлень: 3235

2009-10-05 15:56  
plyrvt! Wide grin Wide grin Wide grin Дякую за гарний настрій Wink (1)
Ніколи б на міг подумати, що хлопці отак собі вирішать пофрікувати Happy Але вийло незле, навіть зі смаком... Сердючка відпочиває Wide grin

nonames 
Новенький


З нами з: 10.12.09
Востаннє: 10.12.09
Повідомлень: 1

2009-12-10 03:03  
Прохання відписатися щодо такого формату подачі Losless. Якщо він влаштовує - надалі роздачі буду робити в такому форматі. даааааааааааааа
keld-lawyer 
Новенький


З нами з: 12.08.10
Востаннє: 12.10.16
Повідомлень: 4

2010-10-12 21:29  
Шановний, будь-добрий, де можна знайти цю дискографію, що ти виклав, але, щоб пісні у альбомах були окремо (не одним файлом)? Спасибі.
jinotot 
Почесний оцифрувальник літератури


З нами з: 28.01.09
Востаннє: 04.12.16
Повідомлень: 3235

2010-10-12 22:20  
keld-lawyer, знайти можна ТУТ, але там вже зовсім інша якість...
keld-lawyer 
Новенький


З нами з: 12.08.10
Востаннє: 12.10.16
Повідомлень: 4

2010-10-12 23:31  
jinotot Велике ДЯКУЮ за оперативну відповідь. Щасливо.
Iggymoon 
Новенький


З нами з: 27.06.10
Востаннє: 22.05.12
Повідомлень: 3

2011-05-11 11:50  
А можна додати CUE файлики до кожного альбому?
Деколи треба порізати на пісні...

ssTAss 
Модератор музики


З нами з: 05.07.08
Востаннє: 11.12.16
Повідомлень: 10958

2011-05-11 22:44  
Iggymoon
plyrvt написано:
Ріп: image+ Embedded CUE

то означає, що куе вбудовані
відкривайте фубаром файли флак і конвертуйте, ріжте, слухайте на здоров'я

Iggymoon 
Новенький


З нами з: 27.06.10
Востаннє: 22.05.12
Повідомлень: 3

2011-07-22 14:51  
Дякую!
Але з Фубаром не вельми дружній я Wink (2)
Працюю з Медіевалом та Аімпом.
Аімп бачить і плеїть, але спліттер не дає порізати...
Є ще якісь варіанти?

ssTAss 
Модератор музики


З нами з: 05.07.08
Востаннє: 11.12.16
Повідомлень: 10958

2011-07-22 22:48  
Iggymoon написано:
Є ще якісь варіанти?

та повно... один з них CUETools

gosha.samovar 
VIP


З нами з: 08.09.10
Востаннє: 10.12.16
Повідомлень: 400

2013-10-04 12:33  
Дякую.
Але, хіба це дискографія? Не вистачає першого диску "Мандри" (1998) і "Світ" (2011) можна було б додати.

Ваш часовий пояс: GMT + 2 Години

Нова тема   Відповісти