Завантажити та скачати торренти українською


Воскресіння Каїна / Raising Cain (1992) 720p Ukr/Eng | Sub Eng

Нові коментарі

Нова тема   Відповісти
Автор Повідомлення
Anonymous 







2016-11-13 13:08  
Воскресіння Каїна / Raising Cain (1992) 720p Ukr/Eng | Sub Eng

Воскресіння Каїна / Raising Cain (1992) 720p Ukr/Eng | Sub Eng

Альтернативний постер


повнорозмірні зображення відкриються по кліку (з натиснутим CTRL чи кліком середньою кнопкою мишки - у новій вкладці)


Жанр: трилер, драма, кримінальний, жахи
Країна: США



Кінокомпанія: Pacific Western
Режисер: Браян Де Пальма / Brian De Palma
Актори: Джон Літґоу / John Lithgow, Лоліта Давидович / Lolita Davidovich, Стівен Бауер / Steven Bauer, Френсіс Стернганґен / Frances Sternhagen, Ґреґґ Генрі / Gregg Henry, Том Бовер / Tom Bower, Мел Гарріс / Mel Harris, Тері Остін / Teri Austin, Ґебріелль Картеріс / Gabrielle Carteris, Бартон Гейман / Barton Heyman та інші

Сюжет:
Маніяк-лікар, який колись поставив моторошний дослід над власним сином, перетворивши його в нещасну істоту, позбавлену свого "Я". Кошмарні сни та страшна реальність, містика і дикі фантазії роздвоєної свідомості сплітаються тут в один заплутаний клубок ...


Рейтинг MPAA: R - особам до 17 років обов'язкова присутність батьків або дорослого опікуна
Вікова категорія: 16+

Тривалість: 01:31:32
Якість: 720p
Відео:
кодек:
розмір кадру: 1280 х 694
бітрейт: 9500 Кбіт/с

Аудіо # 1:
мова: українська
переклад: багатоголосий закадровий
ролі озвучили: Анатолій Зіновенко, Ярослав Чорненький, Ольга Радчук і Ніна Касторф
кодек: 2.0
бітрейт: 192 Кбіт/с

Аудіо # 2:
мова: англійська
переклад: оригінал
кодек: 5.1
бітрейт: 640 Кбіт/с

Субтитри:
мова: англійська
тип: програмні (м'які)
формат: *.srt

Збережено оригінальні розділи, як на Blu-ray
MediaInfo
Код:
Complete name               : Raising Cain (1992) [Ukr,Eng sub.Eng] 720p [Hurtom].mkv
Format                      : Matroska
Format version              : Version 4 / Version 2
File size                   : 6.60 GiB
Duration                    : 1 h 31 min
Overall bit rate            : 10.3 Mb/s

Video
ID                          : 1
Format                      : AVC
Format/Info                 : Advanced Video Codec
Format profile              : [email protected]
Format settings, CABAC      : Yes
Format settings, ReFrames   : 9 frames
Codec ID                    : V_MPEG4/ISO/AVC
Duration                    : 1 h 31 min
Bit rate                    : 9 500 kb/s
Width                       : 1 280 pixels
Height                      : 694 pixels
Display aspect ratio        : 1.85:1
Frame rate mode             : Constant
Frame rate                  : 23.976 (24000/1001) FPS
Color space                 : YUV
Chroma subsampling          : 4:2:0
Bit depth                   : 8 bits
Scan type                   : Progressive
Bits/(Pixel*Frame)          : 0.446
Stream size                 : 6.07 GiB (92%)
Title                       : Воскресіння Каїна / Raising Cain (1992) 720p [HDCLUB]
Writing library             : core 148 r2721 72d53ab
Encoding settings           : cabac=1 / ref=9 / deblock=1:-3:-3 / analyse=0x3:0x113 / me=umh / subme=10 / psy=1 / psy_rd=1.00:0.00 / mixed_ref=1 / me_range=24 / chroma_me=1 / trellis=2 / 8x8dct=1 / cqm=0 / deadzone=21,11 / fast_pskip=0 / chroma_qp_offset=-2 / threads=12 / lookahead_threads=2 / sliced_threads=0 / nr=0 / decimate=0 / interlaced=0 / bluray_compat=0 / constrained_intra=0 / bframes=8 / b_pyramid=2 / b_adapt=2 / b_bias=0 / direct=3 / weightb=1 / open_gop=0 / weightp=2 / keyint=240 / keyint_min=23 / scenecut=40 / intra_refresh=0 / rc_lookahead=50 / rc=2pass / mbtree=0 / bitrate=9500 / ratetol=1.0 / qcomp=0.60 / qpmin=0 / qpmax=69 / qpstep=4 / cplxblur=20.0 / qblur=0.5 / vbv_maxrate=50000 / vbv_bufsize=62500 / nal_hrd=none / filler=0 / ip_ratio=1.40 / pb_ratio=1.30 / aq=1:1.00
Language                    : English
Default                     : Yes
Forced                      : No

Audio #1
ID                          : 2
Format                      : AC-3
Format/Info                 : Audio Coding 3
Mode extension              : CM (complete main)
Format settings, Endianness : Big
Codec ID                    : A_AC3
Duration                    : 1 h 31 min
Bit rate mode               : Constant
Bit rate                    : 192 kb/s
Channel(s)                  : 2 channels
Channel positions           : Front: L R
Sampling rate               : 48.0 kHz
Frame rate                  : 31.250 FPS (1536 spf)
Compression mode            : Lossy
Stream size                 : 126 MiB (2%)
Title                       : MVO [NLO TV] 2.0 192 Кbps [Hurtom-karvai0,POMEO]
Language                    : Ukrainian
Default                     : Yes
Forced                      : No

Audio #2
ID                          : 3
Format                      : AC-3
Format/Info                 : Audio Coding 3
Mode extension              : CM (complete main)
Format settings, Endianness : Big
Codec ID                    : A_AC3
Duration                    : 1 h 31 min
Bit rate mode               : Constant
Bit rate                    : 640 kb/s
Channel(s)                  : 6 channels
Channel positions           : Front: L C R, Side: L R, LFE
Sampling rate               : 48.0 kHz
Frame rate                  : 31.250 FPS (1536 spf)
Compression mode            : Lossy
Stream size                 : 419 MiB (6%)
Title                       : Original, 5.1 640 Kbps
Language                    : English
Default                     : No
Forced                      : No

Text
ID                          : 4
Format                      : UTF-8
Codec ID                    : S_TEXT/UTF8
Codec ID/Info               : UTF-8 Plain Text
Duration                    : 1 h 25 min
Bit rate                    : 56 b/s
Count of elements           : 1025
Stream size                 : 35.5 KiB (0%)
Title                       : Eng Full
Language                    : English
Default                     : No
Forced                      : No

Menu
00:00:00.000                : en:Chapter 01
00:09:57.138                : en:Chapter 02
00:17:44.563                : en:Chapter 03
00:24:10.866                : en:Chapter 04
00:32:55.848                : en:Chapter 05
00:38:57.460                : en:Chapter 06
00:46:17.191                : en:Chapter 07
00:54:17.671                : en:Chapter 08
01:03:34.602                : en:Chapter 09
01:08:34.985                : en:Chapter 10
01:15:45.582                : en:Chapter 11
01:25:52.272                : en:Chapter 12


Джерело: &
Подяка за українську доріжку п.karvai0 (синхронізація) та п.POMEO (запис з ТБ).

ЗАЛИШАЙТЕСЬ ЯКОМОГА ДОВШЕ НА РОЗДАЧІ
ЗАВАНТАЖИВ САМ - ДАЙ ЗАВАНТАЖИТИ ІНШИМ!


Срібний реліз (на рейтинг впливає 50% завантаженого)
 Трекер:    Зареєстрований   

Завантажити / скачати фільм українською



відео для новачків



 Зареєстрований:   2016-11-13 13:43
 Розмір:   6.6 GB 
 Оцінка фільму:   3.1/10 (Голосів: 13)
   
Інші релізи
Ваш часовий пояс: GMT + 2 Години

Нова тема   Відповісти