Завантажити та скачати торренти українською


Дитина Бріджит Джонс / Bridget Jones's Baby (2016) 1080p Ukr/Eng | Sub Eng

Нові коментарі

Нова тема   Відповісти
Автор Повідомлення
Anonymous 







2016-11-12 19:45  
Дитина Бріджит Джонс / Bridget Jones's Baby (2016) 1080p Ukr/Eng | Sub Eng



Альтернативні постери




повнорозмірні зображення відкриються по кліку (з натиснутим CTRL чи кліком середньою кнопкою мишки - у новій вкладці)


Жанр: комедія, мелодрама
Країна: США, Велика Британія, Франція, Ірландія



Кінокомпанія: Miramax, StudioCanal, Universal Pictures, Working Title Films
Режисер: Шерон Маґвайр / Sharon Maguire
Актори: Рене Зеллвеґер / Renée Zellweger, Колін Ферт / Colin Firth, Патрік Демпсі / Patrick Dempsey, Саллі Філліпс / Sally Phillips, Бен Вілбонд / Ben Willbond, Сара Солемані / Sarah Solemani та інші

Сюжет:
Бріджит Джонс завжди мріяла про хеппі-енд. Але після офіційного розриву з Марком Дарсі, який нікуди не зник, а завжди поруч у вигляді запасного аеродрому, вона досі незаміжня, правда, з успішною кар'єрою телепродюсера. І тут життя ставить Бріджит романтичну підніжку у вигляді привабливого американця на ім'я Джек, який є повною протилежністю містера Дарсі. Віддавшись пристрасті, улюблениця всіх жінок планети виявляє, що вагітна і при цьому тільки на 50% впевнена, хто з чоловіків батько її дитини.

Офіційний український трейлер:
Ще один український офіційний трейлер



Рейтинг MPAA: R - особам до 17 років обов'язкова присутність батьків або дорослого опікуна
Вікова категорія: 16+

Тривалість: 02:02:39
Якість: 1080p [iTunes Rus]
Відео:
кодек:
розмір кадру: 1916 х 798
бітрейт: 4553 Кбіт/с
примітка: присутні кілька фраз вбудованих російських форсованих субтитрів

Аудіо # 1:
мова: українська
переклад: професійний дубльований | студія LeDoyen
кодек: 2.0
бітрейт: 192 Кбіт/с
Інформація про дубляж
Фільм дубльовано студією LeDoyen на замовлення B&H Film Distribution
Переклад: Катерина Щепковська
Режисер дубляжу: Ольга Фокіна
Звукорежисер: Олена Лапіна
Звукорежисер перезапису: Дмитро Мялковський
Координатор проекту: Ольга Боєва
Ролі дублювали: Катерина Сергєєва, Олесь Гімбаржевський, Володимир Паляниця, Христина Забара, Наталя Задніпровська, Людмила Ардельян, Інна Бєлікова, Валерія Чайковська, Дмитро Завадський, Юрій Кудрявець, Віталіна Біблів та інші
Аудіо # 2:
мова: англійська
переклад: оригінал
кодек: 2.0
бітрейт: 192 Кбіт/с

Субтитри:
мова: англійська
тип: програмні (м'які)
формат: *.srt

Збережено оригінальні розділи
MediaInfo
Код:
Complete name               : Bridget Jones's Baby (2016) [Ukr,Eng sub.Eng] 1080p [Hurtom].mkv
Format                      : Matroska
Format version              : Version 4 / Version 2
File size                   : 4.23 GiB
Duration                    : 2 h 2 min
Overall bit rate            : 4 939 kb/s

Video
ID                          : 1
Format                      : AVC
Format/Info                 : Advanced Video Codec
Format profile              : [email protected]
Format settings, CABAC      : Yes
Format settings, ReFrames   : 5 frames
Codec ID                    : V_MPEG4/ISO/AVC
Duration                    : 2 h 2 min
Bit rate                    : 4 553 kb/s
Width                       : 1 916 pixels
Height                      : 798 pixels
Display aspect ratio        : 2.40:1
Frame rate mode             : Constant
Frame rate                  : 23.976 (23976/1000) FPS
Color space                 : YUV
Chroma subsampling          : 4:2:0
Bit depth                   : 8 bits
Scan type                   : Progressive
Bits/(Pixel*Frame)          : 0.124
Stream size                 : 3.90 GiB (92%)
Title                       : Дитина Бріджит Джонс / Бріджит Джонс 3 / Bridget Jones's Baby (2016) 1080p [iTunes Rus-ExKinoRay]
Language                    : English
Default                     : Yes
Forced                      : No
Color range                 : Limited
Color primaries             : BT.709
Transfer characteristics    : BT.709
Matrix coefficients         : BT.709

Audio #1
ID                          : 2
Format                      : AC-3
Format/Info                 : Audio Coding 3
Mode extension              : CM (complete main)
Format settings, Endianness : Big
Codec ID                    : A_AC3
Duration                    : 2 h 2 min
Bit rate mode               : Constant
Bit rate                    : 192 kb/s
Channel(s)                  : 2 channels
Channel positions           : Front: L R
Sampling rate               : 48.0 kHz
Frame rate                  : 31.250 FPS (1536 spf)
Compression mode            : Lossy
Stream size                 : 168 MiB (4%)
Title                       : Dub [LeDoyen] 2.0 192 Kbps [Hurtom-Covenant]
Language                    : Ukrainian
Default                     : Yes
Forced                      : No

Audio #2
ID                          : 3
Format                      : AC-3
Format/Info                 : Audio Coding 3
Mode extension              : CM (complete main)
Format settings, Endianness : Big
Codec ID                    : A_AC3
Duration                    : 2 h 2 min
Bit rate mode               : Constant
Bit rate                    : 192 kb/s
Channel(s)                  : 2 channels
Channel positions           : Front: L R
Sampling rate               : 48.0 kHz
Frame rate                  : 31.250 FPS (1536 spf)
Compression mode            : Lossy
Stream size                 : 168 MiB (4%)
Title                       : Original, 2.0  192 Kbps
Language                    : English
Default                     : No
Forced                      : No

Text
ID                          : 4
Format                      : UTF-8
Codec ID                    : S_TEXT/UTF8
Codec ID/Info               : UTF-8 Plain Text
Duration                    : 1 h 56 min
Bit rate                    : 62 b/s
Count of elements           : 1327
Stream size                 : 53.4 KiB (0%)
Language                    : English
Default                     : No
Forced                      : No

Menu
00:00:00.000                : en:глава 1
00:08:50.530                : en:глава 2
00:16:22.565                : en:глава 3
00:24:10.658                : en:глава 4
00:29:55.627                : en:глава 5
00:34:52.298                : en:глава 6
00:41:30.237                : en:глава 7
00:47:43.401                : en:глава 8
00:52:06.455                : en:глава 9
00:57:45.836                : en:глава 10
01:03:39.314                : en:глава 11
01:08:13.880                : en:глава 12
01:13:18.476                : en:глава 13
01:20:49.552                : en:глава 14
01:27:33.998                : en:глава 15
01:37:29.176                : en:глава 16
01:43:19.442                : en:глава 17
01:48:11.567                : en:глава 18
01:51:54.665                : en:глава 19
01:56:08.794                : en:глава 20




Джерела та подяки: &
Подяка за українську доріжку п.Covenant

ЗАЛИШАЙТЕСЬ ЯКОМОГА ДОВШЕ НА РОЗДАЧІ!
ЗАВАНТАЖИВ САМ - ДАЙ ЗАВАНТАЖИТИ ІНШИМ!


 Трекер:    Зареєстрований   

Завантажити / скачати фільм українською



відео для новачків



 Зареєстрований:   2016-11-12 20:24
 Розмір:   4.23 GB 
 Оцінка фільму:   5.5/10 (Голосів: 24)
   
Інші релізи
77997997 
Поважний учасник


З нами з: 26.02.13
Востаннє: 02.12.16
Повідомлень: 210

2016-11-12 19:51  
igor911, а чому відео з москальського iTunes, якщо на нашому тоже є навіть з Українською звуковою доріжкою???
Anonymous 







2016-11-12 20:02  
77997997, надайте мені це відео та звук - я викладу. Або надайте посилання де вони є у вільному доступі. Або зробіть реліз самі.
EduardGol 
Поважний учасник


З нами з: 03.10.13
Востаннє: 02.12.16
Повідомлень: 162

2016-11-20 09:31  
Якісна комедія, яку варто подивитись у суботній вечір. Happy
Ваш часовий пояс: GMT + 2 Години

Нова тема   Відповісти