Завантажити та скачати торренти українською


Бронза / The Bronze (2015) AVC Eng | Sub Eng/Ukr

Нові коментарі

Нова тема   Відповісти
Автор Повідомлення
Anonymous 







2016-11-12 17:32  
Бронза / The Bronze (2015) AVC Eng | Sub Eng/Ukr

Бронза / The Bronze (2015) AVC Eng | Sub Eng/Ukr


Жанр: комедія, драма, спорт
Країна: США



Кінокомпанія: Duplass Brothers Productions
Режисер: Браян Баклі
Актори: Мелісса Ройч, Томас Міддлдітч, Себастіан Стен, Гері Коул, Сесілі Стронг, Дейл Раул

Сюжет:

Хоуп наполегливо тренувалася, в усьому себе обмежувала і мріяла стати чемпіонкою, але вершина її досягнень - бронза на Олімпійських іграх 2004. І травма на додачу, яка поставила хрест на спортивній кар'єрі. Десять років по тому Хоуп живе все в тому ж містечку, де її кожна собака знає, носить все той же спортивний костюм, об'їдається фастфудом, лихословить і постійно лається з батьком. Раптово її колишній тренер вкоротила собі віку, і Хоуп випадає шанс тренувати нову зірку гімнастики з її ж містечка.


Тривалість: 01:40:10
Якість:
Відео:
кодек:
розмір кадру: 1104 х 596
бітрейт: 2277 кб/с

Аудіо:
мова: англійська
переклад: оригінал
кодек: 5.1
бітрейт: 384 кб/с

Субтитри # 1:
мова: англійська
тип: програмні (м'які)
формат: *.srt

Субтитри # 2:
мова: українська
тип: програмні (м'які)
формат: *.srt
MediaInfo
General
Unique ID : 228485948013569956752153447207000684919 (0xABE4CAFC7BF808A0AE46F0FCAD4D3977)
Complete name : E:\The.Bronze.(2015). - AVC.mkv
Format : Matroska
Format version : Version 4 / Version 2
File size : 1.86 GiB
Duration : 1h 40mn
Overall bit rate : 2 664 Kbps
Movie name : Бронза / The Bronze (2015) :: AFM ::
Encoded date : UTC 2016-11-12 14:43:02
Writing application : mkvmerge v8.8.0 ('Wind at my back') 64bit
Writing library : libebml v1.3.3 + libmatroska v1.4.4
DURATION : 01:37:21.964000000
NUMBER_OF_FRAMES : 1472
NUMBER_OF_BYTES : 88425
_STATISTICS_WRITING_APP : mkvmerge v8.8.0 ('Wind at my back') 64bit
_STATISTICS_WRITING_DATE_UTC : 2016-11-12 14:43:02
_STATISTICS_TAGS : BPS DURATION NUMBER_OF_FRAMES NUMBER_OF_BYTES

Video
ID : 1
Format : AVC
Format/Info : Advanced Video Codec
Format profile : [email protected]
Format settings, CABAC : Yes
Format settings, ReFrames : 8 frames
Codec ID : V_MPEG4/ISO/AVC
Duration : 1h 40mn
Bit rate : 2 277 Kbps
Width : 1 104 pixels
Height : 596 pixels
Display aspect ratio : 1.85:1
Frame rate mode : Constant
Frame rate : 23.976 fps
Color space : YUV
Chroma subsampling : 4:2:0
Bit depth : 8 bits
Scan type : Progressive
Bits/(Pixel*Frame) : 0.144
Stream size : 1.56 GiB (84%)
Title : - AVC
Writing library : core 148 r2705+54 9f484c1 t_mod_Custom [[email protected] X86_64]
Encoding settings : cabac=1 / ref=8 / deblock=1:-2:-2 / analyse=0x3:0x113 / me=umh / subme=10 / psy=1 / fade_compensate=0.00 / psy_rd=1.00:0.00 / mixed_ref=1 / me_range=32 / chroma_me=1 / trellis=2 / 8x8dct=1 / cqm=0 / deadzone=21,11 / fast_pskip=0 / chroma_qp_offset=-2 / threads=6 / lookahead_threads=1 / sliced_threads=0 / nr=0 / decimate=0 / interlaced=0 / bluray_compat=0 / constrained_intra=0 / fgo=0 / bframes=10 / b_pyramid=2 / b_adapt=2 / b_bias=0 / direct=3 / weightb=1 / open_gop=0 / weightp=2 / keyint=250 / keyint_min=23 / scenecut=40 / intra_refresh=0 / rc_lookahead=40 / rc=2pass / mbtree=0 / bitrate=2277 / ratetol=1.0 / qcomp=0.65 / qpmin=0:0:0 / qpmax=69:69:69 / qpstep=4 / cplxblur=20.0 / qblur=0.5 / vbv_maxrate=50000 / vbv_bufsize=62500 / nal_hrd=none / filler=0 / ip_ratio=1.30 / pb_ratio=1.25 / aq=3:0.80 / aq-sensitivity=10.00 / aq-factor=1.00:1.00:1.00 / aq2=0 / aq3=0
Language : English
Default : Yes
Forced : No
DURATION : 01:40:10.004000000
NUMBER_OF_FRAMES : 144096
NUMBER_OF_BYTES : 1711033317
_STATISTICS_WRITING_APP : mkvmerge v8.8.0 ('Wind at my back') 64bit
_STATISTICS_WRITING_DATE_UTC : 2016-11-12 14:43:02
_STATISTICS_TAGS : BPS DURATION NUMBER_OF_FRAMES NUMBER_OF_BYTES

Audio
ID : 2
Format : AC-3
Format/Info : Audio Coding 3
Mode extension : CM (complete main)
Format settings, Endianness : Big
Codec ID : A_AC3
Duration : 1h 40mn
Bit rate mode : Constant
Bit rate : 384 Kbps
Channel(s) : 6 channels
Channel positions : Front: L C R, Side: L R, LFE
Sampling rate : 48.0 KHz
Bit depth : 16 bits
Compression mode : Lossy
Stream size : 275 MiB (14%)
Title : Original, 5.1 ~384 kbps
Language : English
Default : Yes
Forced : No

Text #1
ID : 3
Format : UTF-8
Codec ID : S_TEXT/UTF8
Codec ID/Info : UTF-8 Plain Text
Language : English
Default : No
Forced : No

Text #2
ID : 4
Format : UTF-8
Codec ID : S_TEXT/UTF8
Codec ID/Info : UTF-8 Plain Text
Title : UKR (Itunse)
Language : Ukrainian
Default : Yes
Forced : No

Menu
00:00:00.000 : en:Chapter 01
00:06:01.278 : en:Chapter 02
00:09:59.682 : en:Chapter 03
00:15:20.294 : en:Chapter 04
00:20:57.256 : en:Chapter 05
00:26:36.303 : en:Chapter 06
00:31:45.487 : en:Chapter 07
00:36:00.325 : en:Chapter 08
00:41:26.484 : en:Chapter 09
00:47:07.033 : en:Chapter 10
00:53:44.096 : en:Chapter 11
01:00:50.105 : en:Chapter 12
01:08:19.637 : en:Chapter 13
01:15:04.500 : en:Chapter 14
01:23:55.197 : en:Chapter 15
01:30:50.528 : en:Chapter 16
Скріншоти





Джерело:
Особиста оцінка: 0 - не дивився


 Трекер:    Зареєстрований   

Завантажити / скачати фільм українською



відео для новачків



 Зареєстрований:   2016-11-12 17:32
 Розмір:   1.86 GB 
 Оцінка фільму:   10/10 (Голосів: 1)
   
bot 
робот


З нами з: 30.09.07
Востаннє: 26.05.05
Повідомлень: 16004

2016-11-12 19:04  
Тему перенесено з Фільми в HD до форуму Фільми


igor911

igor911 
Відео Гуртом
Відео Гуртом


З нами з: 18.01.08
Востаннє: 06.12.16
Повідомлень: 5155

2016-11-12 19:06  
leicheman написано:
Title : UKR (Itunse)

правильно пишеться "iTunes"

Ваш часовий пояс: GMT + 2 Години

Нова тема   Відповісти