Завантажити та скачати торренти українською


Kozak System - Живи і люби (2015) [FLAC] | Ethno-Rock / Folk-Rock

Нові коментарі

Нова тема   Відповісти
Автор Повідомлення
Wolf1488 
VIP


З нами з: 20.10.09
Востаннє: 04.12.16
Повідомлень: 429

2016-11-12 08:12  
Kozak System - Живи і люби (2015) [FLAC] | Ethno-Rock / Folk-Rock

Kozak System - Живи і люби (2015) [FLAC] | Ethno-Rock / Folk-Rock


Стиль: Ethno Rock / Folk Rock
Країна, місто: Україна, Київ
Сайти: Офіційний сайт
Видавець: Comp Music
Виконавці:
Іван Леньо - спів, акордеон, синтезатори
Володимир Шерстюк - бас, спів
Олександр Дем'яненко - гітара, мандоліна, спів
Сергій Борисенко - барабани, спів
Сергій Соловій - труба, спів, синтезатори

Запрошені музиканти:
Ельвіра Сарихаліл - вокал (5)
Олег Артим - міксування та мастеринг (6)
Василь Попадюк - скрипка (8, 9)
Оксана Бут - бек-вокал (8)
Stacey Yerofeyeva (DoVira) - бек-вокал (8)
СНЕЙК (Аромотерапія) - вокал (8)
Мар'яна Садовська - вокал (9)
Саунд-продюсери: Ігор Громадський та Kozak System
Натхненник: Лесь Подерв'янський

Автори слів:
Юрко Іздрик (1, 2)
Артем Полежака (3, 7)
Сергій Жадан (4)
Сашко Положинський (5)
Дмитро Лазуткін (6)
Народна та СНЕЙК (8)
Народна (9)
Олег "Мох" Гнатів (Перкалаба) (10)
Сергій Соловій (11)
Музика: Kozak System
Пісні:
    01. Живи і люби
    02. Не було і от
    03. Криза С.В.
    04. Коли вона
    05. Битим склом
    06. Сни ранньої весни
    07. Читати тебе
    08. Мамо, нащо?!
    09. Зродилися терки
    10. Колискова
    11. Наш маніфест

Тривалість: 00:44:29
Мова: українська
Аудіо-кодек: FLAC
Бітрейт: 1049 кб/с
Джерело: диск
EAC
Exact Audio Copy V1.0 beta 6 from 9. April 2015

EAC extraction logfile from 8. October 2016, 20:34

- / Kozak System

Used drive : PLDS DVD-RW DS8A8SH Adapter: 1 ID: 1

Read mode : Secure
Utilize accurate stream : Yes
Defeat audio cache : Yes
Make use of C2 pointers : No

Read offset correction : 6
Overread into Lead-In and Lead-Out : No
Fill up missing offset samples with silence : Yes
Delete leading and trailing silent blocks : No
Null samples used in CRC calculations : Yes
Used interface : Native Win32 interface for Win NT & 2000

Used output format : Internal WAV Routines
Sample format : 44.100 Hz; 16 Bit; Stereo

TOC of the extracted CD

Track | Start | Length | Start sector | End sector
---------------------------------------------------------
1 | 0:00.00 | 3:48.41 | 0 | 17140
2 | 3:48.41 | 3:58.73 | 17141 | 35063
3 | 7:47.39 | 3:21.17 | 35064 | 50155
4 | 11:08.56 | 4:31.49 | 50156 | 70529
5 | 15:40.30 | 5:31.56 | 70530 | 95410
6 | 21:12.11 | 3:53.47 | 95411 | 112932
7 | 25:05.58 | 3:17.21 | 112933 | 127728
8 | 28:23.04 | 3:47.61 | 127729 | 144814
9 | 32:10.65 | 5:36.37 | 144815 | 170051
10 | 37:47.27 | 3:52.60 | 170052 | 187511
11 | 41:40.12 | 2:49.14 | 187512 | 200200

Range status and errors

Selected range

Filename E:\Kozak System.wav

Peak level 100.0 %
Extraction speed 3.4 X
Range quality 100.0 %
Test CRC BED34F07
Copy CRC BED34F07
Copy OK

No errors occurred

End of status report

==== Log checksum 38226D71F4ED0AE02FE7B3F24984275D4AC5CC260BBA4F7D3071F888B790C496 ====
audiochecker
AUDIOCHECKER v2.0 beta (build 457) - by Dester - [email protected]
~~~~~~~~~~~~~~~~~~~~~~~~~~~~~~~~~~

Started at: субота, 12. 11. 2016. - 8:05.00
1 file found

1 -===- E:\Kozak System - Живи і люби\Kozak System.wav
Conclusion: this track is CDDA with probability 100%

Finished at: субота, 12. 11. 2016. - 8:08.19 (operation time: 0:03.19)


Якщо Ви справді бажаєте підтримати українське - після прослуховування, якщо музика вам сподобалась, придбайте ліцензійний диск. Підтримаймо вітчизняних виконавців!


Срібний реліз (на рейтинг впливає 50% завантаженого)
 Трекер:    Зареєстрований   

Завантажити / скачати українську музику



відео для новачків



 Зареєстрований:   2016-11-14 18:08
 Розмір:   334 MB 
 Оцінка музики:   10/10 (Голосів: 5)
   
ssTAss 
Модератор музики


З нами з: 05.07.08
Востаннє: 04.12.16
Повідомлень: 10937

2016-11-12 19:20  
Wolf1488 написано:
Аудіо-кодек: WAV

а запакувати флак чи апе ніяк?

Додано через 42 секунди:

скани маєте можливість зробити?

Wolf1488 
VIP


З нами з: 20.10.09
Востаннє: 04.12.16
Повідомлень: 429

2016-11-13 03:59  
ssTAss
мені потрібно було для себе пару різних форматів, тому ріпав зразу у wav, щоб не розпаковувати по декілька раз.
впринципі, можу порізати на треки і упакувати їх у flac.
скани зробити не зможу, бо немаю сканера і диска вже теж(

ssTAss 
Модератор музики


З нами з: 05.07.08
Востаннє: 04.12.16
Повідомлень: 10937

2016-11-13 14:07  
Wolf1488 написано:
впринципі, можу порізати на треки

не треба
потрековий ріп треба було робити з диску, а зараз це вже фігня буде
Wolf1488 написано:
упакувати їх у flac

це можна зробити наприклад програмою CueTools
Wolf1488 написано:
скани зробити не зможу, бо немаю сканера і диска вже теж(

шкода, але не біда
скани є в неті

Wolf1488 
VIP


З нами з: 20.10.09
Востаннє: 04.12.16
Повідомлень: 429

2016-11-14 18:09  
ssTAss
упакував, додав обкладинку

Ваш часовий пояс: GMT + 2 Години

Нова тема   Відповісти