Завантажити та скачати торренти українською


Ранковий підйом (Доброго Ранку) / Morning Glory (2010) 1080p 2xUkr/Eng | Sub Ukr/Eng

Нові коментарі

Нова тема   Відповісти
Автор Повідомлення
yuretsua 
Частий відвідувач


З нами з: 05.09.11
Востаннє: 10.12.16
Повідомлень: 34

2016-11-09 12:55  
Ранковий підйом (Доброго Ранку) / Morning Glory (2010) 1080p 2xUkr/Eng | Sub Ukr/Eng

Ранковий підйом (Доброго Ранку) / Morning Glory (2010) 1080p 2xUkr/Eng | Sub Ukr/Eng


Жанр: романтична комедія, драма, мелодрама
Країна: США



Кінокомпанія: Bad Robot
Режисер: Роджер Мічелл
Актори: Рейчел Макадамс , Харрісон Форд , Дайан Кітон , Джон Пенкоу , Ванесса Аспіллага , Брюс Олтман , Фіфті Сент , Ті Баррел , Патрік Вілсон , Джеф Голдблюм

Сюжет:
У пошуках нового місця роботи Беккі Фулер (Рейчел МакАдамс) за відсутністю кращих варіантів влаштовується телепродюсером низько-рейтингового ранкового шоу «Morning Glory». Щоб збільшити аудиторію і підняти рейтинг програми Беккі запрошує на посаду ведучого легендарного Майка Помероя (Гаррісон Форд), для якого кращі часи вже давно позаду. Рішення це далеко не бездоганне. Майк виявляється досить впертим і примхливим співробітником і до того ж ніяк не може знайти спільну мову зі своєю колегою Колін Пек (Даян Кітон), з якою він змушений ділити ефір. Постійні конфлікти і проблеми ставлять під загрозу долю шоу і подальшу кар'єру Беккі.


Тривалість: 01:47:28
Якість: 1080p
Відео:
кодек:
розмір кадру: 1920 х 798
бітрейт: 15.5 Мбіт/с

Аудіо # 1:
мова: українська
переклад: професійний дубльований "LeDoyen" на офіційне замовлення "B&H Film Distribution"
кодек: 5.1
бітрейт: 448 кб/с

Аудіо # 2:
мова: українська
переклад: багатоголосий закадровий
кодек: 2.0
бітрейт: 192 кб/с

Аудіо # 3:
мова: англійська
переклад: оригінал
кодек: 5.1
бітрейт: 1509 кб/с

Субтитри # 1:
мова: українська
тип: програмні (м'які)
формат: *.srt

Субтитри # 2:
мова: англійська
тип: програмні (м'які)
формат: *.srt
MediaInfo
General
Unique ID : 204345859317235606426901779397664089996 (0x99BB94B8F251C43AAB12D0BBF5B0A78C)
Complete name : D:\torrents\Morning Glory (2010) [2xUkr,Eng] 1080p [Hurtom].mkv
Format : Matroska
Format version : Version 4 / Version 2
File size : 13.3 GiB
Duration : 1 h 47 min
Overall bit rate : 17.7 Mb/s
Movie name : Morning Glory (2010)
Encoded date : UTC 2016-11-09 10:26:16
Writing application : mkvmerge v9.5.0 ('Quiet Fire') 64bit
Writing library : libebml v1.3.4 + libmatroska v1.4.5
Cover : Yes
Attachments : cover.jpg

Video
ID : 1
Format : AVC
Format/Info : Advanced Video Codec
Format profile : [email protected]
Format settings, CABAC : Yes
Format settings, ReFrames : 5 frames
Codec ID : V_MPEG4/ISO/AVC
Duration : 1 h 47 min
Bit rate : 15.5 Mb/s
Width : 1 920 pixels
Height : 798 pixels
Display aspect ratio : 2.40:1
Frame rate mode : Constant
Frame rate : 23.976 (24000/1001) FPS
Color space : YUV
Chroma subsampling : 4:2:0
Bit depth : 8 bits
Scan type : Progressive
Bits/(Pixel*Frame) : 0.422
Stream size : 11.6 GiB (88%)
Writing library : core 114 r1900 60ef1f8
Encoding settings : cabac=1 / ref=5 / deblock=1:-3:-3 / analyse=0x3:0x113 / me=umh / subme=9 / psy=1 / psy_rd=1.00:0.00 / mixed_ref=1 / me_range=32 / chroma_me=1 / trellis=1 / 8x8dct=1 / cqm=0 / deadzone=21,11 / fast_pskip=0 / chroma_qp_offset=-2 / threads=18 / sliced_threads=0 / nr=0 / decimate=0 / interlaced=0 / constrained_intra=0 / bframes=6 / b_pyramid=2 / b_adapt=1 / b_bias=0 / direct=1 / weightb=1 / open_gop=0 / weightp=2 / keyint=250 / keyint_min=23 / scenecut=40 / intra_refresh=0 / rc_lookahead=40 / rc=2pass / mbtree=1 / bitrate=15500 / ratetol=1.0 / qcomp=0.60 / qpmin=0 / qpmax=69 / qpstep=4 / cplxblur=20.0 / qblur=0.5 / ip_ratio=1.40 / aq=1:0.80
Language : English
Default : Yes
Forced : No

Audio #1
ID : 2
Format : AC-3
Format/Info : Audio Coding 3
Mode extension : CM (complete main)
Format settings, Endianness : Big
Codec ID : A_AC3
Duration : 1 h 47 min
Bit rate mode : Constant
Bit rate : 448 kb/s
Channel(s) : 6 channels
Channel positions : Front: L C R, Side: L R, LFE
Sampling rate : 48.0 kHz
Frame rate : 31.250 FPS (1536 spf)
Compression mode : Lossy
Stream size : 344 MiB (3%)
Title : 5.1 @ 448 kbps
Language : Ukrainian
Default : Yes
Forced : No

Audio #2
ID : 3
Format : AC-3
Format/Info : Audio Coding 3
Mode extension : CM (complete main)
Format settings, Endianness : Big
Codec ID : A_AC3
Duration : 1 h 47 min
Bit rate mode : Constant
Bit rate : 192 kb/s
Channel(s) : 2 channels
Channel positions : Front: L R
Sampling rate : 48.0 kHz
Frame rate : 31.250 FPS (1536 spf)
Compression mode : Lossy
Stream size : 148 MiB (1%)
Title : 2.0 @ 192 kbps
Language : Ukrainian
Default : No
Forced : No

Audio #3
ID : 4
Format :
Format/Info : Digital Theater Systems
Mode : 16
Format settings, Endianness : Big
Codec ID : A_DTS
Duration : 1 h 47 min
Bit rate mode : Constant
Bit rate : 1 509 kb/s
Channel(s) : 6 channels
Channel positions : Front: L C R, Side: L R, LFE
Sampling rate : 48.0 kHz
Frame rate : 93.750 FPS (512 spf)
Bit depth : 24 bits
Compression mode : Lossy
Delay relative to video : 22 ms
Stream size : 1.13 GiB (9%)
Title : 5.1 @ 1510 Kbps [Original]
Language : English
Default : No
Forced : No

Text #1
ID : 5
Format : UTF-8
Codec ID : S_TEXT/UTF8
Codec ID/Info : UTF-8 Plain Text
Duration : 1 h 42 min
Bit rate : 156 b/s
Count of elements : 1709
Stream size : 117 KiB (0%)
Language : Ukrainian
Default : Yes
Forced : No

Text #2
ID : 6
Format : UTF-8
Codec ID : S_TEXT/UTF8
Codec ID/Info : UTF-8 Plain Text
Duration : 1 h 42 min
Bit rate : 90 b/s
Count of elements : 1686
Stream size : 67.5 KiB (0%)
Language : English
Default : No
Forced : No

Menu
00:00:00.000 : en:00:00:00.000
00:06:58.793 : en:00:06:58.793
00:09:38.286 : en:00:09:38.286
00:15:20.086 : en:00:15:20.086
00:22:49.577 : en:00:22:49.577
00:26:19.620 : en:00:26:19.620
00:31:37.896 : en:00:31:37.896
00:39:08.680 : en:00:39:08.680
00:44:19.073 : en:00:44:19.073
00:49:39.977 : en:00:49:39.977
00:54:25.512 : en:00:54:25.512
01:00:35.632 : en:01:00:35.632
01:05:48.945 : en:01:05:48.945
01:13:32.617 : en:01:13:32.617
01:17:25.474 : en:01:17:25.474
01:21:15.788 : en:01:21:15.788
01:29:12.305 : en:01:29:12.305
01:34:38.131 : en:01:34:38.131
Скріншоти
Джерело: &
Подяка пану РОМЕО за запис звуку з К1 та пану karvai0 за першу доріжку
Особиста оцінка: 0 - не дивився


 Трекер:    Зареєстрований   

Завантажити / скачати фільм українською



відео для новачків



 Зареєстрований:   2016-11-09 12:55
 Розмір:   13.25 GB 
 Оцінка фільму:   9/10 (Голосів: 4)
   
life-men 
Новенький


З нами з: 19.04.13
Востаннє: 06.12.16
Повідомлень: 10

2016-11-09 13:32  
Якраз шукав ) Велике спасибі !
igor911 
Відео Гуртом
Відео Гуртом


З нами з: 18.01.08
Востаннє: 10.12.16
Повідомлень: 5217

2016-11-09 15:22  
yuretsua, у розділі HD скріншоти робляться та викладаються у форматі png. Перероби, будь ласка.
Ваш часовий пояс: GMT + 2 Години

Нова тема   Відповісти