Завантажити та скачати торренти українською


Стартрек: За межами Всесвіту / Star Trek Beyond (2016) 1080p 3D [HalfOverUnder] Ukr/Eng | Sub Ukr/Eng

Нові коментарі

Нова тема   Відповісти
Автор Повідомлення
-VipeR- 
VIP


З нами з: 17.07.08
Востаннє: 06.12.16
Повідомлень: 275

2016-11-08 14:23  
Стартрек: За межами Всесвіту / Star Trek Beyond (2016) 1080p 3D [HalfOverUnder] Ukr/Eng | Sub Ukr/Eng

Стартрек: За межами Всесвіту / Star Trek Beyond (2016) 1080p 3D [HalfOverUnder] Ukr/Eng | Sub Ukr/Eng


Жанр: фантастика, бойовик, трилер, пригодницький
Країна: США



Кінокомпанія: Paramount Pictures, Skydance Productions, Alibaba Pictures Group, Huahua Media, Bad Robot, Sneaky Shark, Perfect Storm Entertainment
Режисер: Джастін Лін / Justin Lin
Актори: Кріс Пайн / Chris Pine, Закарі Квінто / Zachary Quinto, Саймон Пегг / Simon Pegg, Карл Урбан / Karl Urban, Зоі Салдана / Zoe Saldana, Ідріс Ельба / Idris Elba, Софія Бутелла / Sofia Boutella, Джон Чо / John Cho, Шоре Агдашлу / Shohreh Aghdashloo та інші

Сюжет:
Від режисера "Форсажу" та популярного серіалу "Справжній детектив" Джастіна Ліна, а також продюсера "Вулиця Монстро, 10" і "Місія неможлива: Нація ізгоїв" Джей Джей Абрамса. Продовження фантастичних пригод екіпажу зоряного корабля "Ентерпрайз" на чолі з капітаном Т. Кірком. Під час місії на незвідану територію зоряне судно і команда були атаковані невідомими прибульцями. Їм довелося покинути "Ентерпрайз" і висадитися на планету, де немає ні зв'язку, ні засобів порятунку. Поки капітан Кірк намагається зібрати весь свій екіпаж і придумати як їм повернутися на Землю, на горизонті з'являється новий ворог.


Тривалість: 02:02:22
Якість: 1080p 3D [HalfOverUnder] by ash61
Відео:
кодек:
розмір кадру: 1920 х 1080
бітрейт: 9 461 кб/с

Аудіо # 1:
мова: українська
переклад: професійний дубльований
кодек: 2.0
бітрейт: 192 кб/с

Аудіо # 2:
мова: англійська
переклад: оригінал
кодек: 5.1
бітрейт: 192 кб/с

Субтитри: (Forced, Full)
мова: українська
тип: програмні (м'які)
формат: *.srt

Субтитри:(Forced, Full, SDH)
мова: англійська
тип: програмні (м'які)
формат: *.srt
MediaInfo
Код:
General
Unique ID                      : 172509970713274171546500113587349954976 (0x81C8363A811EFE65B3485C30237F21A0)
Complete name                  : D:\3D\Художні\Star Trek Beyond (2016) 1080p 3D [Ukr Eng] sub [Ukr Eng].mkv
Format                         : Matroska
Format version                 : Version 4 / Version 2
File size                      : 8.80 GiB
Duration                       : 2h 2mn
Overall bit rate               : 10.3 Mbps
Movie name                     : Star Trek Beyond (2016) в 3D
Released date                  : 2016
Encoded date                   : UTC 2016-11-08 11:51:28
Writing application            : mkvmerge v8.8.0 ('Wind at my back') 64bit
Writing library                : libebml v1.3.3 + libmatroska v1.4.4
Cover                          : Yes
Comment                        : http://www.imdb.com/title/tt2660888/
Attachments                    : cover.jpg
ARTIST                         : Кріс Пайн / Chris Pine, Закарі Квінто / Zachary Quinto, Саймон Пегг / Simon Pegg, Карл Урбан / Karl Urban, Зоі Салдана / Zoe Saldana, Ідріс Ельба / Idris Elba, Софія Бутелла / Sofia Boutella, Джон Чо / John Cho, Шоре Агдашлу / Shohreh Aghdashloo та інші
DIRECTOR                       : Джастін Лін / Justin Lin
GENRE                          : фантастика, бойовик, трилер, пригодницький
SYNOPSIS                       : Продовження фантастичних пригод екіпажу зоряного корабля "Ентерпрайз" на чолі з капітаном Т. Кірком. Під час місії на незвідану територію зоряне судно і команда були атаковані невідомими прибульцями. Їм довелося покинути "Ентерпрайз" і висадитися на планету, де немає ні зв'язку, ні засобів порятунку. Поки капітан Кірк намагається зібрати весь свій екіпаж і придумати як їм повернутися на Землю, на горизонті з'являється новий ворог...
Url                            : https://toloka.to/t77129

Video
ID                             : 1
Format                         : AVC
Format/Info                    : Advanced Video Codec
Format profile                 : [email protected]
Format settings, CABAC         : Yes
Format settings, ReFrames      : 4 frames
Codec ID                       : V_MPEG4/ISO/AVC
Duration                       : 2h 2mn
Bit rate                       : 9 461 Kbps
Width                          : 1 920 pixels
Height                         : 1 080 pixels
Display aspect ratio           : 16:9
Frame rate mode                : Constant
Frame rate                     : 23.976 (24000/1001) fps
Color space                    : YUV
Chroma subsampling             : 4:2:0
Bit depth                      : 8 bits
Scan type                      : Progressive
Bits/(Pixel*Frame)             : 0.190
Stream size                    : 8.09 GiB (92%)
Title                          : by Ash61
Writing library                : core 146 r2538 121396c
Encoding settings              : cabac=1 / ref=4 / deblock=1:-3:-3 / analyse=0x3:0x113 / me=umh / subme=10 / psy=1 / psy_rd=1.00:0.00 / mixed_ref=1 / me_range=32 / chroma_me=1 / trellis=2 / 8x8dct=1 / cqm=0 / deadzone=21,11 / fast_pskip=1 / chroma_qp_offset=-2 / threads=12 / lookahead_threads=2 / sliced_threads=0 / nr=0 / decimate=1 / interlaced=0 / bluray_compat=0 / constrained_intra=0 / bframes=8 / b_pyramid=2 / b_adapt=2 / b_bias=0 / direct=3 / weightb=1 / open_gop=0 / weightp=2 / keyint=250 / keyint_min=23 / scenecut=40 / intra_refresh=0 / rc_lookahead=60 / rc=crf / mbtree=1 / crf=16.0 / qcomp=0.70 / qpmin=0 / qpmax=69 / qpstep=4 / vbv_maxrate=40000 / vbv_bufsize=30000 / crf_max=0.0 / nal_hrd=none / filler=0 / frame-packing=4 / ip_ratio=1.40 / aq=1:0.70
Language                       : English
Default                        : Yes
Forced                         : No

Audio #1
ID                             : 2
Format                         : AC-3
Format/Info                    : Audio Coding 3
Mode extension                 : CM (complete main)
Format settings, Endianness    : Big
Codec ID                       : A_AC3
Duration                       : 2h 2mn
Bit rate mode                  : Constant
Bit rate                       : 192 Kbps
Channel(s)                     : 2 channels
Channel positions              : Front: L R
Sampling rate                  : 48.0 KHz
Frame rate                     : 31.250 fps (1536 spf)
Compression mode               : Lossy
Stream size                    : 168 MiB (2%)
Title                          : Dub, 2.0 192 Kbps [Hurtom]
Language                       : Ukrainian
Default                        : Yes
Forced                         : No

Audio #2
ID                             : 3
Format                         : AC-3
Format/Info                    : Audio Coding 3
Mode extension                 : CM (complete main)
Format settings, Endianness    : Big
Codec ID                       : A_AC3
Duration                       : 2h 2mn
Bit rate mode                  : Constant
Bit rate                       : 640 Kbps
Channel(s)                     : 6 channels
Channel positions              : Front: L C R, Side: L R, LFE
Sampling rate                  : 48.0 KHz
Frame rate                     : 31.250 fps (1536 spf)
Compression mode               : Lossy
Stream size                    : 560 MiB (6%)
Title                          : Original - BD 3D
Language                       : English
Default                        : No
Forced                         : No

Text #1
ID                             : 4
Format                         : UTF-8
Codec ID                       : S_TEXT/UTF8
Codec ID/Info                  : UTF-8 Plain Text
Duration                       : 1h 42mn
Bit rate                       : 1 bps
Count of elements              : 18
Stream size                    : 848 Bytes (0%)
Title                          : Ukr forced [Hurtom-igor911]
Language                       : Ukrainian
Default                        : Yes
Forced                         : Yes

Text #2
ID                             : 5
Format                         : UTF-8
Codec ID                       : S_TEXT/UTF8
Codec ID/Info                  : UTF-8 Plain Text
Duration                       : 2h 0mn
Bit rate                       : 67 bps
Count of elements              : 1295
Stream size                    : 59.7 KiB (0%)
Title                          : Ukr full [BD EUR]
Language                       : Ukrainian
Default                        : No
Forced                         : No

Text #3
ID                             : 6
Format                         : UTF-8
Codec ID                       : S_TEXT/UTF8
Codec ID/Info                  : UTF-8 Plain Text
Duration                       : 1h 51mn
Bit rate                       : 51 bps
Count of elements              : 1300
Stream size                    : 42.6 KiB (0%)
Title                          : Full
Language                       : English
Default                        : No
Forced                         : No

Text #4
ID                             : 7
Format                         : UTF-8
Codec ID                       : S_TEXT/UTF8
Codec ID/Info                  : UTF-8 Plain Text
Duration                       : 1h 51mn
Bit rate                       : 58 bps
Count of elements              : 1527
Stream size                    : 47.5 KiB (0%)
Title                          : SDH
Language                       : English
Default                        : No
Forced                         : No

Text #5
ID                             : 8
Format                         : UTF-8
Codec ID                       : S_TEXT/UTF8
Codec ID/Info                  : UTF-8 Plain Text
Duration                       : 1h 51mn
Bit rate                       : 74 bps
Count of elements              : 1527
Stream size                    : 61.3 KiB (0%)
Title                          : SDH-Colored
Language                       : English
Default                        : No
Forced                         : No

Menu
00:00:00.000                   : :1
00:08:26.548                   : :2
00:16:11.637                   : :3
00:32:38.290                   : :4
00:42:16.367                   : :5
00:52:22.264                   : :6
00:59:50.629                   : :7
01:12:05.530                   : :8
01:22:34.449                   : :9
01:33:00.950                   : :10
01:40:33.319                   : :11
01:47:38.994                   : :12
01:52:32.663                   : :13
01:55:41.351                   : :14
Скріншоти


Джерело: &
Подяка п. Hanway за синхронізацію, п. AngryBirdsUA за доріжку, п. Neytreenor та п. igor911 за субтитри.

Відео для перегляду на 3D обладнанні!


 Трекер:    Зареєстрований   

Завантажити / скачати фільм українською



відео для новачків



 Зареєстрований:   2016-11-08 14:23
 Розмір:   8.8 GB 
 Оцінка фільму:   10/10 (Голосів: 9)
   
boroznaya 
VIP


З нами з: 02.11.12
Востаннє: 06.12.16
Повідомлень: 1873

2016-11-15 17:27  
5.1 буде?
-VipeR- 
VIP


З нами з: 17.07.08
Востаннє: 06.12.16
Повідомлень: 275

2016-11-18 15:36  
boroznaya написано:
5.1 буде?

Не буде.

Ваш часовий пояс: GMT + 2 Години

Нова тема   Відповісти