Завантажити та скачати торренти українською


Стартрек: За межами Всесвіту / Star Trek Beyond (2016) 720p-mini (60 fps)

Нові коментарі

Нова тема   Відповісти
Автор Повідомлення
Drool 
VIP


З нами з: 17.04.10
Востаннє: 06.12.16
Повідомлень: 1264

2016-11-07 15:42  
Стартрек: За межами Всесвіту / Star Trek Beyond (2016) 720p-mini (60 fps)

Жанр: фантастика, бойовик, трилер, пригодницький
Країна: США



Кінокомпанія: Paramount Pictures, Skydance Productions, Alibaba Pictures Group, Huahua Media, Bad Robot, Sneaky Shark, Perfect Storm Entertainment
Режисер: Джастін Лін
Актори: Кріс Пайн, Закарі Квінто, Саймон Пегг, Карл Урбан, Зоі Салдана, Ідріс Ельба, Софія Бутелла, Джон Чо, Шоре Агдашлу та інші

Сюжет:
Від режисера "Форсажу" та популярного серіалу "Справжній детектив" Джастіна Ліна, а також продюсера "Вулиця Монстро, 10" і "Місія неможлива: Нація ізгоїв" Джей Джей Абрамса. Продовження фантастичних пригод екіпажу зоряного корабля "Ентерпрайз" на чолі з капітаном Т. Кірком. Під час місії на незвідану територію зоряне судно і команда були атаковані невідомими прибульцями. Їм довелося покинути "Ентерпрайз" і висадитися на планету, де немає ні зв'язку, ні засобів порятунку. Поки капітан Кірк намагається зібрати весь свій екіпаж і придумати як їм повернутися на Землю, на горизонті з'являється новий ворог.


Тривалість: 02:02:22
Якість: 720p-mini
Відео:
кодек:
розмір кадру: 1280x536
бітрейт: 4829 кб/с
crf: crf=17.8
кадрів на секунду: 59.940 к/с

Аудіо:
мова: українська
переклад: професійний дубльований
кодек: 2.0
бітрейт: 192 кб/с

Субтитри:
мова: українська
тип: програмні (м'які, форсовані)
формат: *.srt
MediaInfo
Код:
General
Unique ID                                : 319541719441771452968951931095661742443 (0xF0657F20E01C3913CB407F8B0731096B)
Complete name                            : /mnt/disk_d/Video/Star.Trek.Beyond.2016.Ukr.Dub-LINE..720p-mini.60fps.mkv
Format                                   : Matroska
Format version                           : Version 4 / Version 2
File size                                : 4.38 GiB
Duration                                 : 2h 2mn
Overall bit rate                         : 5 123 Kbps
Movie name                               : Стартрек: За межами Всесвіту / Star Trek Beyond (2016) 720p-mini [60fps] | NNNB
Encoded date                             : UTC 2016-11-07 14:37:53
Writing application                      : mkvmerge v9.2.0 ('Photograph') 64bit
Writing library                          : libebml v1.3.3 + libmatroska v1.4.4
Attachements                             : cover.jpg
DURATION                                 : 01:42:05.375000000
NUMBER_OF_FRAMES                         : 18
NUMBER_OF_BYTES                          : 848
_STATISTICS_WRITING_APP                  : mkvmerge v9.2.0 ('Photograph') 64bit
_STATISTICS_WRITING_DATE_UTC             : 2016-11-07 14:37:53
_STATISTICS_TAGS                         : BPS DURATION NUMBER_OF_FRAMES NUMBER_OF_BYTES

Video
ID                                       : 1
Format                                   : AVC
Format/Info                              : Advanced Video Codec
Format profile                           : [email protected]
Format settings, CABAC                   : Yes
Format settings, ReFrames                : 9 frames
Codec ID                                 : V_MPEG4/ISO/AVC
Duration                                 : 2h 2mn
Bit rate                                 : 4 829 Kbps
Width                                    : 1 280 pixels
Height                                   : 536 pixels
Display aspect ratio                     : 2.40:1
Frame rate mode                          : Constant
Frame rate                               : 59.880 fps
Original frame rate                      : 59.940 fps
Color space                              : YUV
Chroma subsampling                       : 4:2:0
Bit depth                                : 8 bits
Scan type                                : Progressive
Bits/(Pixel*Frame)                       : 0.118
Stream size                              : 4.13 GiB (94%)
Title                                    : Стартрек: За межами Всесвіту / Star Trek Beyond (2016) 720p-mini [60fps] | NNNB
Writing library                          : core 146 r2538 121396c
Encoding settings                        : cabac=1 / ref=9 / deblock=1:0:0 / analyse=0x3:0x113 / me=umh / subme=9 / psy=1 / psy_rd=1.00:0.00 / mixed_ref=1 / me_range=24 / chroma_me=1 / trellis=2 / 8x8dct=1 / cqm=0 / deadzone=21,11 / fast_pskip=0 / chroma_qp_offset=-2 / threads=12 / lookahead_threads=1 / sliced_threads=0 / nr=0 / decimate=1 / interlaced=0 / bluray_compat=0 / constrained_intra=0 / bframes=5 / b_pyramid=2 / b_adapt=2 / b_bias=0 / direct=3 / weightb=1 / open_gop=0 / weightp=2 / keyint=250 / keyint_min=25 / scenecut=40 / intra_refresh=0 / rc_lookahead=40 / rc=crf / mbtree=0 / crf=17.8 / qcomp=0.60 / qpmin=0 / qpmax=69 / qpstep=4 / vbv_maxrate=14000 / vbv_bufsize=14000 / crf_max=0.0 / nal_hrd=none / filler=0 / ip_ratio=1.40 / pb_ratio=1.30 / aq=3:1.00
Default                                  : Yes
Forced                                   : Yes
DURATION                                 : 02:02:22.135000000
NUMBER_OF_FRAMES                         : 440088
NUMBER_OF_BYTES                          : 4520251468
_STATISTICS_WRITING_APP                  : mkvmerge v9.2.0 ('Photograph') 64bit
_STATISTICS_WRITING_DATE_UTC             : 2016-11-07 14:37:53
_STATISTICS_TAGS                         : BPS DURATION NUMBER_OF_FRAMES NUMBER_OF_BYTES

Audio
ID                                       : 2
Format                                   : AC-3
Format/Info                              : Audio Coding 3
Mode extension                           : CM (complete main)
Format settings, Endianness              : Big
Codec ID                                 : A_AC3
Duration                                 : 2h 2mn
Bit rate mode                            : Constant
Bit rate                                 : 192 Kbps
Channel(s)                               : 2 channels
Channel positions                        : Front: L R
Sampling rate                            : 48.0 KHz
Compression mode                         : Lossy
Stream size                              : 168 MiB (4%)
Title                                    : 2.0 @ 192 kbps
Language                                 : Ukrainian
Default                                  : Yes
Forced                                   : Yes

Text
ID                                       : 3
Format                                   : UTF-8
Codec ID                                 : S_TEXT/UTF8
Codec ID/Info                            : UTF-8 Plain Text
Title                                    : Forced
Language                                 : Ukrainian
Default                                  : Yes
Forced                                   : Yes
Скріншоти


Джерело відеоряду:
Особиста оцінка: 9 - давно не бачив настільки якісне кіно


 Трекер:    Зареєстрований   

Завантажити / скачати фільм українською



відео для новачків



 Зареєстрований:   2016-11-07 16:57
 Розмір:   4.38 GB 
 Оцінка фільму:   9.7/10 (Голосів: 23)
   
bot 
робот


З нами з: 30.09.07
Востаннє: 26.05.05
Повідомлень: 16003

2016-11-07 16:57  
Тему перенесено з Анонси релізів до форуму Фільми в HD


Drool

Mant1kor 
Частий відвідувач


З нами з: 27.10.10
Востаннє: 05.12.16
Повідомлень: 41

2016-11-07 20:06  
Панове, скажіть звідки взялись 60fps в фільмі? Джерело таке чи апскейл з звичайного?
igor911 
Відео Гуртом
Відео Гуртом


З нами з: 18.01.08
Востаннє: 06.12.16
Повідомлень: 5148

2016-11-07 20:12  
Mant1kor, ріпер домалював.
Mant1kor 
Частий відвідувач


З нами з: 27.10.10
Востаннє: 05.12.16
Повідомлень: 41

2016-11-07 20:19  
igor911, зрозуміло.
А зараз можна дістати фільми з чесними 60fps, чи таких не випускають в масовий продаж?
Я просто не слідкую за ринком фільмів в Blu-Ray.

igor911 
Відео Гуртом
Відео Гуртом


З нами з: 18.01.08
Востаннє: 06.12.16
Повідомлень: 5148

2016-11-07 20:39  
Mant1kor, за специфікацією блурей диск підтримує 60 к/с, а от чи випускають в реалі і які, я не цікавився.
Drool 
VIP


З нами з: 17.04.10
Востаннє: 06.12.16
Повідомлень: 1264

2016-11-07 20:43  
Кемерон обіцяв Аватар-2 знімати нативні 60 fps...
zoomymba2012 
Новенький


З нами з: 08.01.15
Востаннє: 05.12.16
Повідомлень: 17

2016-11-07 23:08  
Drool
Не було такого.

Drool 
VIP


З нами з: 17.04.10
Востаннє: 06.12.16
Повідомлень: 1264

2016-11-08 00:04  
zoomymba2012 написано:
Не було такого
В гуглі забанили?
Ваш часовий пояс: GMT + 2 Години

Нова тема   Відповісти