Завантажити та скачати торренти українською


VA - Classic Rock Society - New Species (Volume XIII)(2014)[FLAC] | Progressive Rock

Нові коментарі

Нова тема   Відповісти
Автор Повідомлення
kolpavel 
VIP


З нами з: 04.05.14
Востаннє: 05.12.16
Повідомлень: 1059

2016-11-06 15:26  
VA - Classic Rock Society - New Species (Volume XIII)(2014)[FLAC] | Progressive Rock

VA - Classic Rock Society - New Species (Volume XIII)(2014)[FLAC] | Progressive Rock


Стиль: Progressive Rock
Країна, місто: Україна, Харкiв
Сайти: Офіційний сайт
Видавець: Classic Rock Society (CRS CD013)
Пісні:
    01. The Room / 16 Tonnes (Live at the CRS) - 08:16
    02. Panic Room / Velocity - 05:16
    03. Toxic Smile / Afterglow - 07:35
    04. The Watch / Devil's Bridge - 06:12
    05. Symphony Of Pain / Darker Side - 03:57
    06. Red Bazar / The Illusionist - 07:55
    07. RPWL / Swords And Guns (Edit) - 06:05
    08. Hoggwash / Let The Lady Smile - 05:15
    09. Matt Stevens / Oxymoron - 02:45
    10. Black Noodle Project / Voices from Yesterday - 05:50
    11. Unto Us / These Four Walls - 08:13
    12. Chris Thompson / Hey You - 03:54
    13. Landmarq / Entertaining Angels (Live Edit) - 07:38

Тривалість: 01:08:57
Мова: англiйська
Аудіо-кодек: FLAC
Бітрейт: 931 кб/с
Джерело: трекер
Додаткова інформація:
EAC
Exact Audio Copy V1.0 beta 3 from 29. August 2011

EAC extraction logfile from 11. September 2014, 19:41

Classic Rock Society / New Species - Volume XIII

Used drive : ASUS DRW-24B1LT Adapter: 4 ID: 0

Read mode : Secure
Utilize accurate stream : Yes
Defeat audio cache : Yes
Make use of C2 pointers : No

Read offset correction : 6
Overread into Lead-In and Lead-Out : No
Fill up missing offset samples with silence : Yes
Delete leading and trailing silent blocks : No
Null samples used in CRC calculations : Yes
Used interface : Native Win32 interface for Win NT & 2000

Used output format : User Defined Encoder
Selected bitrate : 1024 kBit/s
Quality : High
Add ID3 tag : Yes
Command line compressor : C:\Program Files (x86)\FLAC_1.3.0\flac.exe
Additional command line options : -6 -V -T "ARTIST=%artist%" -T "TITLE=%title%" -T "ALBUM=%albumtitle%" -T "DATE=%year%" -T "TRACKNUMBER=%tracknr%" -T "GENRE=%genre%" -T "COMMENT=%comment%" %source% -o %dest%

TOC of the extracted CD

Track | Start | Length | Start sector | End sector
---------------------------------------------------------
1 | 0:00.00 | 8:16.30 | 0 | 37229
2 | 8:16.30 | 5:16.30 | 37230 | 60959
3 | 13:32.60 | 7:35.21 | 60960 | 95105
4 | 21:08.06 | 6:12.14 | 95106 | 123019
5 | 27:20.20 | 3:57.68 | 123020 | 140862
6 | 31:18.13 | 7:55.16 | 140863 | 176503
7 | 39:13.29 | 6:05.35 | 176504 | 203913
8 | 45:18.64 | 5:15.00 | 203914 | 227538
9 | 50:33.64 | 2:45.13 | 227539 | 239926
10 | 53:19.02 | 5:50.23 | 239927 | 266199
11 | 59:09.25 | 8:13.71 | 266200 | 303245
12 | 67:23.21 | 3:54.70 | 303246 | 320865
13 | 71:18.16 | 7:38.73 | 320866 | 355288

Range status and errors

Selected range

Filename Y:\EAC\wurensh\CRS\Classic Rock Society - New Species - Volume XIII.wav

Peak level 100.0 %
Extraction speed 10.3 X
Range quality 100.0 %
Test CRC 53281032
Copy CRC 53281032
Copy OK

No errors occurred

AccurateRip summary

Track 1 accurately ripped (confidence 4) [36C3E250] (AR v2)
Track 2 accurately ripped (confidence 4) [067F60CF] (AR v2)
Track 3 accurately ripped (confidence 4) [EB23D023] (AR v2)
Track 4 accurately ripped (confidence 4) [45E2C8B7] (AR v2)
Track 5 accurately ripped (confidence 4) [55210D4E] (AR v2)
Track 6 accurately ripped (confidence 4) [A36C0A71] (AR v2)
Track 7 accurately ripped (confidence 4) [D642B502] (AR v2)
Track 8 accurately ripped (confidence 4) [711C0273] (AR v2)
Track 9 accurately ripped (confidence 4) [8A1E798F] (AR v2)
Track 10 accurately ripped (confidence 4) [B6616094] (AR v2)
Track 11 accurately ripped (confidence 4) [E8377B6C] (AR v2)
Track 12 accurately ripped (confidence 4) [EE5FC6A0] (AR v2)
Track 13 accurately ripped (confidence 4) [8AB78872] (AR v2)

All tracks accurately ripped

End of status report

==== Log checksum 930C4C85D0652F371639DC8806BF3161A9EB38290B2905BF1EBE9B056FE04609 ====
CUE sheet
REM GENRE "Progressive Rock"
REM DATE 2014
REM DISCID A012810D
REM COMMENT "ExactAudioCopy v1.0b3"
PERFORMER "Classic Rock Society"
TITLE "New Species - Volume XIII"
FILE "Classic Rock Society - New Species - Volume XIII.flac" WAVE
TRACK 01 AUDIO
TITLE "16 Tonnes (Live at the CRS)"
PERFORMER "The Room"
INDEX 01 00:00:00
TRACK 02 AUDIO
TITLE "Velocity"
PERFORMER "Panic Room"
INDEX 01 08:16:30
TRACK 03 AUDIO
TITLE "Afterglow"
PERFORMER "Toxic Smile"
INDEX 01 13:32:60
TRACK 04 AUDIO
TITLE "Devil's Bridge"
PERFORMER "The Watch"
INDEX 01 21:08:06
TRACK 05 AUDIO
TITLE "Darker Side"
PERFORMER "Symphony Of Pain"
INDEX 01 27:20:20
TRACK 06 AUDIO
TITLE "The Illusionist"
PERFORMER "Red Bazar"
INDEX 01 31:18:13
TRACK 07 AUDIO
TITLE "Swords And Guns (Edit)"
PERFORMER "RPWL"
INDEX 01 39:13:29
TRACK 08 AUDIO
TITLE "Let The Lady Smile"
PERFORMER "Hoggwash"
INDEX 01 45:18:64
TRACK 09 AUDIO
TITLE "Oxymoron"
PERFORMER "Matt Stevens"
INDEX 01 50:33:64
TRACK 10 AUDIO
TITLE "Voices from Yesterday"
PERFORMER "Black Noodle Project"
INDEX 01 53:19:02
TRACK 11 AUDIO
TITLE "These Four Walls"
PERFORMER "Unto Us"
INDEX 01 59:09:25
TRACK 12 AUDIO
TITLE "Hey You"
PERFORMER "Chris Thompson"
INDEX 01 67:23:21
TRACK 13 AUDIO
TITLE "Entertaining Angels (Live Edit)"
PERFORMER "Landmarq"
INDEX 01 71:18:16


Якщо Ви справді бажаєте підтримати українське - після прослуховування, якщо музика вам сподобалась, придбайте ліцензійний диск. Підтримаймо вітчизняних виконавців!


 Трекер:    Зареєстрований   

Завантажити / скачати українську музику



відео для новачків



 Зареєстрований:   2016-11-06 16:01
 Розмір:   535 MB 
 Оцінка музики:   10/10 (Голосів: 1)
   
kolpavel 
VIP


З нами з: 04.05.14
Востаннє: 05.12.16
Повідомлень: 1059

2016-11-06 16:03  
VA - Classic Rock Society - New Species (Volume XI)(2013)[FLAC] http://toloka.to/t77270
Hoggwash - Spellbound (2013) [FLAC] http://toloka.to/t76728

Ваш часовий пояс: GMT + 2 Години

Нова тема   Відповісти