Завантажити та скачати торренти українською


VA - Classic Rock Society - New Species (Volume XI)(2013)[FLAC] | Progressive Rock

Нові коментарі

Нова тема   Відповісти
Автор Повідомлення
kolpavel 
VIP


З нами з: 04.05.14
Востаннє: 10.12.16
Повідомлень: 1062

2016-11-06 14:59  
VA - Classic Rock Society - New Species (Volume XI)(2013)[FLAC] | Progressive Rock

VA - Classic Rock Society - New Species (Volume XI)(2013)[FLAC] | Progressive Rock


Стиль: Progressive Rock
Країна, місто: Україна, Харкiв
Сайти: Офіційний сайт
Видавець: Classic Rock Society (CRS CD011)
Виконавцi - Пісні:
    01. Ayreon / The Theory Of Everything Parts 1 and 2 (edit) - 04:46
    02. Manning / The Huntsman and the Poacher - 05:38
    03. Hoggwash / The Way Back Home - 06:58
    04. House Of Odette feat. Nick Magnus and Fiona Ford / Annalisa - 05:50
    05. Eden Shadow / Elgon - 11:36
    06. Traumhaus / Wohin der Wind Dich tragt - 06:31
    07. White Willow / Till He Arrives - 03:29
    08. Solstice / Black Water (edit) - 08:52
    09. Broken Parachute / Nowhere - 05:05
    10. The Flower Kings / Desolation Road - 04:02
    11. The Opium Cartel / Mariner, Come in - 10:57

Тривалість: 00:13:43
Мова: англiйська
Аудіо-кодек: FLAC
Бітрейт: 694-1050 кб/с
Джерело: трекер
Додаткова інформація:
EAC
Exact Audio Copy V1.0 beta 1 from 15. November 2010

EAC extraction logfile from 13. June 2014, 20:54

Various Artists / CRS Presents - New Species Volume XI

Used drive : SlimtypeDVD A DS8A4S Adapter: 1 ID: 0

Read mode : Secure
Utilize accurate stream : Yes
Defeat audio cache : Yes
Make use of C2 pointers : No

Read offset correction : 6
Overread into Lead-In and Lead-Out : No
Fill up missing offset samples with silence : Yes
Delete leading and trailing silent blocks : No
Null samples used in CRC calculations : Yes
Used interface : Installed external ASPI interface
Gap handling : Appended to previous track

Used output format : User Defined Encoder
Selected bitrate : 896 kBit/s
Quality : High
Add ID3 tag : No
Command line compressor : C:\Program Files\Exact Audio Copy\Flac\flac.exe
Additional command line options : -8 -V -T "ARTIST=%a" -T "TITLE=%t" -T "ALBUM=%g" -T "DATE=%y" -T "TRACKNUMBER=%n" -T "GENRE=%m" -T "COMMENT=EAC Secure Mode, Test & Copy, AccurateRip, FLAC -8" %s

TOC of the extracted CD

Track | Start | Length | Start sector | End sector
---------------------------------------------------------
1 | 0:00.00 | 4:45.64 | 0 | 21438
2 | 4:45.64 | 5:38.28 | 21439 | 46816
3 | 10:24.17 | 6:57.60 | 46817 | 78151
4 | 17:22.02 | 5:50.05 | 78152 | 104406
5 | 23:12.07 | 11:35.49 | 104407 | 156580
6 | 34:47.56 | 6:31.00 | 156581 | 185905
7 | 41:18.56 | 3:29.00 | 185906 | 201580
8 | 44:47.56 | 8:51.38 | 201581 | 241443
9 | 53:39.19 | 5:05.23 | 241444 | 264341
10 | 58:44.42 | 4:01.48 | 264342 | 282464
11 | 62:46.15 | 10:56.58 | 282465 | 331722

Track 1

Filename D:\bzp01\Various Artists - CRS Presents - New Species Volume XI (2013) [FLAC] {CRSCD011}\01 - Ayreon - The Theory Of Everything Parts 1 and 2 (edit).wav

Pre-gap length 0:00:02.00

Peak level 73.9 %
Extraction speed 3.0 X
Track quality 100.0 %
Test CRC F9267410
Copy CRC F9267410
Accurately ripped (confidence 6) [B3508B59]
Copy OK

Track 2

Filename D:\bzp01\Various Artists - CRS Presents - New Species Volume XI (2013) [FLAC] {CRSCD011}\02 - Manning - The Huntsman and the poacher.wav

Peak level 89.8 %
Extraction speed 3.0 X
Track quality 99.9 %
Test CRC 2ABB3961
Copy CRC 2ABB3961
Accurately ripped (confidence 6) [C21722D8]
Copy OK

Track 3

Filename D:\bzp01\Various Artists - CRS Presents - New Species Volume XI (2013) [FLAC] {CRSCD011}\03 - Hoggwash - The way back home.wav

Peak level 98.8 %
Extraction speed 3.9 X
Track quality 100.0 %
Test CRC 23835D51
Copy CRC 23835D51
Accurately ripped (confidence 6) [699C76E0]
Copy OK

Track 4

Filename D:\bzp01\Various Artists - CRS Presents - New Species Volume XI (2013) [FLAC] {CRSCD011}\04 - House Of Odette feat Nick Magnus and Fiona Ford - Annalisa.wav

Peak level 99.9 %
Extraction speed 4.2 X
Track quality 100.0 %
Test CRC 811CFBA5
Copy CRC 811CFBA5
Accurately ripped (confidence 6) [D5C7496F]
Copy OK

Track 5

Filename D:\bzp01\Various Artists - CRS Presents - New Species Volume XI (2013) [FLAC] {CRSCD011}\05 - Eden Shadow - Elgon.wav

Peak level 100.0 %
Extraction speed 4.5 X
Track quality 99.9 %
Test CRC A5BD9A54
Copy CRC A5BD9A54
Accurately ripped (confidence 6) [811549AD]
Copy OK

Track 6

Filename D:\bzp01\Various Artists - CRS Presents - New Species Volume XI (2013) [FLAC] {CRSCD011}\06 - Traumhaus - Wohin der Wind Dich tragt.wav

Peak level 94.9 %
Extraction speed 5.0 X
Track quality 100.0 %
Test CRC 175D4361
Copy CRC 175D4361
Accurately ripped (confidence 6) [74E7D396]
Copy OK

Track 7

Filename D:\bzp01\Various Artists - CRS Presents - New Species Volume XI (2013) [FLAC] {CRSCD011}\07 - White Willow - Till he arrives.wav

Peak level 100.0 %
Extraction speed 4.9 X
Track quality 100.0 %
Test CRC 801D247F
Copy CRC 801D247F
Accurately ripped (confidence 6) [2B437FE6]
Copy OK

Track 8

Filename D:\bzp01\Various Artists - CRS Presents - New Species Volume XI (2013) [FLAC] {CRSCD011}\08 - Solstice - Black Water (edit).wav

Peak level 100.0 %
Extraction speed 5.6 X
Track quality 100.0 %
Test CRC 0B2974D6
Copy CRC 0B2974D6
Accurately ripped (confidence 6) [1BBD6B0C]
Copy OK

Track 9

Filename D:\bzp01\Various Artists - CRS Presents - New Species Volume XI (2013) [FLAC] {CRSCD011}\09 - Broken Parachute - Nowhere.wav

Peak level 99.9 %
Extraction speed 5.6 X
Track quality 100.0 %
Test CRC E3CDB836
Copy CRC E3CDB836
Accurately ripped (confidence 6) [A20A09B4]
Copy OK

Track 10

Filename D:\bzp01\Various Artists - CRS Presents - New Species Volume XI (2013) [FLAC] {CRSCD011}\10 - The Flower Kings - Desolation Road.wav

Peak level 96.7 %
Extraction speed 5.6 X
Track quality 100.0 %
Test CRC BD07018C
Copy CRC BD07018C
Accurately ripped (confidence 6) [186BB2BA]
Copy OK

Track 11

Filename D:\bzp01\Various Artists - CRS Presents - New Species Volume XI (2013) [FLAC] {CRSCD011}\11 - The Opium Cartel - Mariner, come in.wav

Peak level 100.0 %
Extraction speed 6.4 X
Track quality 100.0 %
Test CRC 786580D4
Copy CRC 786580D4
Accurately ripped (confidence 6) [2C8A8A25]
Copy OK

All tracks accurately ripped

No errors occurred

End of status report

==== Log checksum AF97668EDBEE2BEB46D2802059E42A0256C2E6DEE3F350839B9949C5A3CCCA2D ====
CUE sheet
[CUETools log; Date: 06.11.2016 10:52:56; Version: 2.1.5]
[CTDB TOCID: 3giTDDlf5DG7JqwBLD.3l5Ah2BE-] found.
Track | CTDB Status
1 | (3/3) Accurately ripped
2 | (3/3) Accurately ripped
3 | (3/3) Accurately ripped
4 | (3/3) Accurately ripped
5 | (3/3) Accurately ripped
6 | (3/3) Accurately ripped
7 | (3/3) Accurately ripped
8 | (3/3) Accurately ripped
9 | (3/3) Accurately ripped
10 | (3/3) Accurately ripped
11 | (3/3) Accurately ripped
[AccurateRip ID: 001d37e9-00fff9e8-a511460b] found.
Track [ CRC | V2 ] Status
01 [b3508b59|879f4a2c] (0+7/7) Accurately ripped
02 [c21722d8|90a28d0b] (0+7/7) Accurately ripped
03 [699c76e0|45ae3522] (0+7/7) Accurately ripped
04 [d5c7496f|55547928] (0+7/7) Accurately ripped
05 [811549ad|45721976] (0+7/7) Accurately ripped
06 [74e7d396|25c409a3] (0+7/7) Accurately ripped
07 [2b437fe6|29eb18d1] (0+7/7) Accurately ripped
08 [1bbd6b0c|41ae7576] (0+7/7) Accurately ripped
09 [a20a09b4|87d8a7d7] (0+7/7) Accurately ripped
10 [186bb2ba|a828d066] (0+7/7) Accurately ripped
11 [2c8a8a25|249bcd1b] (0+7/7) Accurately ripped

Track Peak [ CRC32 ] [W/O NULL] [ LOG ]
-- 100,0 [3FFD8505] [2E16F3A7]
01 73,9 [F9267410] [98C7ADA6] CRC32
02 89,8 [2ABB3961] [CAAAD658] CRC32
03 98,8 [23835D51] [056315D4] CRC32
04 99,9 [811CFBA5] [81B4CDD7] CRC32
05 100,0 [A5BD9A54] [9BB937B7] CRC32
06 94,9 [175D4361] [01185941] CRC32
07 99,9 [801D247F] [1FAC863D] CRC32
08 100,0 [0B2974D6] [844C03D6] CRC32
09 99,9 [E3CDB836] [035022C8] CRC32
10 96,7 [BD07018C] [12906199] CRC32
11 99,9 [786580D4] [B943C729] CRC32


Якщо Ви справді бажаєте підтримати українське - після прослуховування, якщо музика вам сподобалась, придбайте ліцензійний диск. Підтримаймо вітчизняних виконавців!


 Трекер:    Зареєстрований   

Завантажити / скачати українську музику



відео для новачків



 Зареєстрований:   2016-11-06 14:59
 Розмір:   465 MB 
 Оцінка музики:   10/10 (Голосів: 1)
   
kolpavel 
VIP


З нами з: 04.05.14
Востаннє: 10.12.16
Повідомлень: 1062

2016-11-06 15:01  
Hoggwash - Spellbound (2013) [FLAC] http://toloka.to/t76728
VA - Classic Rock Society - New Species (Volume XIII)(2014)[FLAC] - http://toloka.to/t77273#845462

Ваш часовий пояс: GMT + 2 Години

Нова тема   Відповісти