Завантажити та скачати торренти українською


Оборонець / Concussion (2015) AVC ENG | sub Ukr/Eng

Нові коментарі

Нова тема   Відповісти
Автор Повідомлення
Anonymous 







2016-11-05 14:02  
Оборонець / Concussion (2015) AVC ENG | sub Ukr/Eng

Оборонець / Concussion (2015) AVC ENG | sub Ukr/Eng


Жанр: драма, спорт, трилер, біографічний
Країна: США



Кінокомпанія: LStar Capital Village Roadshow Pictures Scott Free Productions The Shuman Company Cara Films The Cantillon Company
Режисер: Пітер Лендесман
Актори: Адвел Акіннуойє Агбадж, Майк Омаллі, Едді Марсан, Гугу Мбата-Роу, Гілл Гарпер, Люк Вілсон, Бітсі Таллоч, Альберт Брукс, Вілл Сміт, Алек Болдвін, Девід Морс, Арлісс Говард, Стівен Мойер, Пол Райзер

Сюжет:
Американський біографічно-спортивний драматичний фільм, знятий Пітером Лендесманом[1][2]. Світова прем'єра стрічки відбулась 10 листопада 2015 року на фестивалі Американського інституту кіномистецтва. Фільм розповідає про доктора Беннета Омалу, який намагається довести факт отримання футболістами важких травм голови під час гри, попри заперечення Національної футбольної ліги.


Тривалість: 02:02:50
Якість:
Відео:
кодек:
розмір кадру: 1052 x 440
бітрейт: 1902 кб/с

Аудіо:
мова: англійська
переклад: оригінал
кодек: 2.0
бітрейт: 192 кб/с

Субтитри:
мова: українська iTunes
тип: програмні (м'які)
формат: *.srt

Субтитри:
мова: англійська iTunes
тип: програмні (м'які)
формат: *.srt
Скріншоти




МедіяІнфо
General
Unique ID : 180227167262425429673687849757141819007 (0x87967D64FE2E0AF3BCE0785A4A4ADE7F)
Complete name : E:\Concussion.2015.AVC.mkv
Format : Matroska
Format version : Version 4 / Version 2
File size : 1.80 GiB
Duration : 2h 2mn
Overall bit rate : 2 095 Kbps
Movie name : Concussion (2015) (Rip by stalkerok)
Encoded date : UTC 2016-11-05 11:52:12
Writing application : mkvmerge v8.8.0 ('Wind at my back') 64bit
Writing library : libebml v1.3.3 + libmatroska v1.4.4
DURATION : 01:57:01.973000000
NUMBER_OF_FRAMES : 1322
NUMBER_OF_BYTES : 47153
_STATISTICS_WRITING_APP : mkvmerge v8.8.0 ('Wind at my back') 64bit
_STATISTICS_WRITING_DATE_UTC : 2016-11-05 11:52:12
_STATISTICS_TAGS : BPS DURATION NUMBER_OF_FRAMES NUMBER_OF_BYTES

Video
ID : 1
Format : AVC
Format/Info : Advanced Video Codec
Format profile : [email protected]
Format settings, CABAC : Yes
Format settings, ReFrames : 14 frames
Codec ID : V_MPEG4/ISO/AVC
Duration : 2h 2mn
Bit rate : 1 902 Kbps
Width : 1 052 pixels
Height : 440 pixels
Display aspect ratio : 2.40:1
Frame rate mode : Constant
Frame rate : 23.976 fps
Color space : YUV
Chroma subsampling : 4:2:0
Bit depth : 8 bits
Scan type : Progressive
Bits/(Pixel*Frame) : 0.171
Stream size : 1.60 GiB (89%)
Title : Concussion (2015) - AVC
Writing library : core 148 r2705+54 9f484c1 t_mod_Custom [[email protected] X86_64]
Encoding settings : cabac=1 / ref=14 / deblock=1:-3:-2 / analyse=0x3:0x133 / me=umh / subme=10 / psy=1 / fade_compensate=0.00 / psy_rd=1.00:0.00 / mixed_ref=1 / me_range=32 / chroma_me=1 / trellis=2 / 8x8dct=1 / cqm=0 / deadzone=21,11 / fast_pskip=0 / chroma_qp_offset=-2 / threads=12 / lookahead_threads=3 / sliced_threads=0 / nr=0 / decimate=0 / interlaced=0 / bluray_compat=0 / constrained_intra=0 / fgo=0 / bframes=14 / b_pyramid=2 / b_adapt=2 / b_bias=0 / direct=3 / weightb=1 / open_gop=0 / weightp=2 / keyint=240 / keyint_min=23 / scenecut=40 / intra_refresh=0 / rc_lookahead=60 / rc=2pass / mbtree=0 / bitrate=1902 / ratetol=1.0 / qcomp=0.65 / qpmin=0:0:0 / qpmax=69:69:69 / qpstep=4 / cplxblur=20.0 / qblur=0.5 / vbv_maxrate=50000 / vbv_bufsize=62500 / nal_hrd=none / filler=0 / ip_ratio=1.40 / pb_ratio=1.30 / aq=3:0.80 / aq-sensitivity=10.00 / aq-factor=1.00:1.00:1.00 / aq2=0 / aq3=0
Default : Yes
Forced : No
DURATION : 02:02:50.363000000
NUMBER_OF_FRAMES : 176712
NUMBER_OF_BYTES : 1751888564
_STATISTICS_WRITING_APP : mkvmerge v8.8.0 ('Wind at my back') 64bit
_STATISTICS_WRITING_DATE_UTC : 2016-11-05 11:52:12
_STATISTICS_TAGS : BPS DURATION NUMBER_OF_FRAMES NUMBER_OF_BYTES

Audio
ID : 2
Format : AC-3
Format/Info : Audio Coding 3
Mode extension : CM (complete main)
Format settings, Endianness : Big
Codec ID : A_AC3
Duration : 2h 2mn
Bit rate mode : Constant
Bit rate : 192 Kbps
Channel(s) : 2 channels
Channel positions : Front: L R
Sampling rate : 48.0 KHz
Bit depth : 16 bits
Compression mode : Lossy
Stream size : 169 MiB (9%)
Language : English
Default : No
Forced : No

Text #1
ID : 3
Format : UTF-8
Codec ID : S_TEXT/UTF8
Codec ID/Info : UTF-8 Plain Text
Language : Ukrainian
Default : Yes
Forced : Yes

Text #2
ID : 4
Format : UTF-8
Codec ID : S_TEXT/UTF8
Codec ID/Info : UTF-8 Plain Text
Language : English
Default : No
Forced : No

Menu
00:00:00.000 : en:Chapter 1
00:07:26.696 : en:Chapter 2
00:14:41.630 : en:Chapter 3
00:21:48.098 : en:Chapter 4
00:29:36.566 : en:Chapter 5
00:37:42.927 : en:Chapter 6
00:43:44.538 : en:Chapter 7
00:51:30.712 : en:Chapter 8
00:59:35.446 : en:Chapter 9
01:06:58.264 : en:Chapter 10
01:13:07.508 : en:Chapter 11
01:22:18.308 : en:Chapter 12
01:30:34.720 : en:Chapter 13
01:38:15.097 : en:Chapter 14
01:46:46.942 : en:Chapter 15
01:53:34.808 : en:Chapter 16
Джерело:
Особиста оцінка: 0 - не дивився


 Трекер:    Зареєстрований   

Завантажити / скачати фільм українською



відео для новачків



 Зареєстрований:   2016-11-05 14:06
 Розмір:   1.8 GB 
 Оцінка фільму:   9.8/10 (Голосів: 4)
   
Bod_zik99 
VIP


З нами з: 28.12.13
Востаннє: 06.12.16
Повідомлень: 820

2016-11-05 15:05  
Фільм,здається,був у прокаті.
havryk 
VIP


З нами з: 29.06.10
Востаннє: 05.12.16
Повідомлень: 539

2016-11-05 15:21  
Bod_zik99 написано:
Фільм,здається,був у прокаті.

Ні, скасували.

McFUCKER 
Новенький


З нами з: 20.12.11
Востаннє: 06.12.16
Повідомлень: 13

2016-11-06 14:20  
то дубляжу не буде?
Anonymous 







2016-11-06 17:48  
McFUCKER
Дубляж мо буде, якщо якийсь канал його покаже.

Andrij1971 
Новенький


З нами з: 19.07.14
Востаннє: 04.12.16
Повідомлень: 14

2016-11-06 20:06  
Субтитри: мова: українська iTunes чомусь відсутні
Anonymous 







2016-11-08 17:45  
Andrij1971 написано:
Субтитри: мова: українська iTunes чомусь відсутні

щойно перевірив
субтитри є
спробуйте інший програвач.

Ваш часовий пояс: GMT + 2 Години

Нова тема   Відповісти