Завантажити та скачати торренти українською


Дорога на Арлінгтон / Arlington Road (1999) AVC Ukr/Eng | Sub Eng

Нові коментарі

Нова тема   Відповісти
Автор Повідомлення
krigg070 
Відео Гуртом - фільмокрай
Відео Гуртом - фільмокрай


З нами з: 29.10.14
Востаннє: 07.12.16
Повідомлень: 354

2016-11-03 23:54  
Дорога на Арлінгтон / Arlington Road (1999) AVC Ukr/Eng | Sub Eng


Жанр: трилер
Країна: США



Кінокомпанія: Lakeshore Entertainment, Screen Gems
Режисер: Марк Пеллінгтон
Актори: Джефф Бріджес, Тім Роббінс, Джоан Кьюсак, Хоуп Девіс, Роберт Госсетт, Мейсон Гембл, Спенсер Тріт Кларк, Стенлі Андерсон, Вівіан Вайвз та інші
Сюжет:
Інтелігентний професор Майкл Фарадей, який сам виховує свого сина після трагічної загибелі дружини під час рейду ФБР, і не уявляє, який крутий поворот незабаром вчинить його доля. Знайомство з милою сусідською сім'єю допомагає Майклу оправитися від потрясіння і повернутися до нормального життя.

Однак чим довше Майкл спілкується з новими друзями, тим більше непояснених сумнівів і хвилювань з'являється в його душі. Піймавши кілька разів сусіда на дрібній брехні, Майкл вирішує з'ясувати все про цю людину. І його відкриття виявляються набагато страшнішими, ніж він міг собі уявити.

Тривалість: 01:57:44
Якість: AVC
Відео:
кодек:
розмір кадру: 1024 х 426
бітрейт: 1 565 кб/с

Аудіо # 1:
мова: українська
переклад: багатоголосий закадровий
кодек: 2.0
бітрейт: 192 кб/с

Аудіо # 2:
мова: англійська
переклад: оригінал
кодек: 5.1
бітрейт: 448 кб/с

Субтитри (форсовані, на 2 фрази без перекладу):
мова: українська
тип: програмні (м'які)
формат: *.srt

Субтитри:
мова: англійська
тип: програмні (м'які)
формат: *.srt
Скріншоти
MediaInfo
Код:
Video
ID                             : 1
Format                         : AVC
Format/Info                    : Advanced Video Codec
Format profile                 : [email protected]
Format settings, CABAC         : Yes
Format settings, ReFrames      : 8 frames
Codec ID                       : V_MPEG4/ISO/AVC
Duration                       : 1h 57mn
Bit rate                       : 1 565 Kbps
Width                          : 1 024 pixels
Height                         : 426 pixels
Display aspect ratio           : 2.40:1
Frame rate mode                : Constant
Frame rate                     : 23.976 (24000/1001) fps
Color space                    : YUV
Chroma subsampling             : 4:2:0
Bit depth                      : 8 bits
Scan type                      : Progressive
Bits/(Pixel*Frame)             : 0.150
Stream size                    : 1.29 GiB (71%)
Writing library                : core 138 r2356 a1d3d17
Encoding settings              : cabac=1 / ref=8 / deblock=1:-3:-2 / analyse=0x3:0x113 / me=umh / subme=10 / psy=1 / psy_rd=1.00:0.05 / mixed_ref=1 / me_range=32 / chroma_me=1 / trellis=2 / 8x8dct=1 / cqm=0 / deadzone=21,11 / fast_pskip=0 / chroma_qp_offset=-3 / threads=6 / lookahead_threads=1 / sliced_threads=0 / nr=0 / decimate=0 / interlaced=0 / bluray_compat=0 / constrained_intra=0 / bframes=8 / b_pyramid=2 / b_adapt=2 / b_bias=0 / direct=3 / weightb=1 / open_gop=0 / weightp=2 / keyint=240 / keyint_min=24 / scenecut=40 / intra_refresh=0 / rc_lookahead=40 / rc=2pass / mbtree=1 / bitrate=1565 / ratetol=1.0 / qcomp=0.60 / qpmin=0 / qpmax=69 / qpstep=4 / cplxblur=20.0 / qblur=0.5 / ip_ratio=1.40 / aq=1:1.00
Language                       : English
Default                        : Yes
Forced                         : No

Audio #1
ID                             : 2
Format                         : AC-3
Format/Info                    : Audio Coding 3
Mode extension                 : CM (complete main)
Format settings, Endianness    : Big
Codec ID                       : A_AC3
Duration                       : 1h 57mn
Bit rate mode                  : Constant
Bit rate                       : 192 Kbps
Channel(s)                     : 2 channels
Channel positions              : Front: L R
Sampling rate                  : 48.0 KHz
Frame rate                     : 31.250 fps (1536 spf)
Compression mode               : Lossy
Stream size                    : 162 MiB (9%)
Title                          : 2.0 @ 192 kbps - Інтер
Language                       : Ukrainian
Default                        : Yes
Forced                         : No

Audio #2
ID                             : 3
Format                         : AC-3
Format/Info                    : Audio Coding 3
Mode extension                 : CM (complete main)
Format settings, Endianness    : Big
Codec ID                       : A_AC3
Duration                       : 1h 57mn
Bit rate mode                  : Constant
Bit rate                       : 448 Kbps
Channel(s)                     : 6 channels
Channel positions              : Front: L C R, Side: L R, LFE
Sampling rate                  : 48.0 KHz
Frame rate                     : 31.250 fps (1536 spf)
Compression mode               : Lossy
Stream size                    : 377 MiB (20%)
Title                          : 5.1 @ 448 kbps - Original
Language                       : English
Default                        : No
Forced                         : No

Text #1
ID                             : 4
Format                         : UTF-8
Codec ID                       : S_TEXT/UTF8
Codec ID/Info                  : UTF-8 Plain Text
Duration                       : 5s 800ms
Bit rate                       : 215 bps
Count of elements              : 2
Stream size                    : 156 Bytes (0%)
Title                          : Forced
Language                       : Ukrainian
Default                        : Yes
Forced                         : No

Text #2
ID                             : 5
Format                         : UTF-8
Codec ID                       : S_TEXT/UTF8
Codec ID/Info                  : UTF-8 Plain Text
Duration                       : 1h 51mn
Bit rate                       : 55 bps
Count of elements              : 1196
Stream size                    : 45.2 KiB (0%)
Language                       : English
Default                        : No
Forced                         : No

Menu
00:00:00.000                   : uk:Епізод 01
00:05:15.565                   : uk:Епізод 02
00:08:17.455                   : uk:Епізод 03
00:15:30.679                   : uk:Епізод 04
00:21:01.426                   : uk:Епізод 05
00:31:19.752                   : uk:Епізод 06
00:38:31.142                   : uk:Епізод 07
00:41:35.993                   : uk:Епізод 08
00:48:57.601                   : uk:Епізод 09
00:56:51.908                   : uk:Епізод 10
01:07:51.025                   : uk:Епізод 11
01:14:00.727                   : uk:Епізод 12
01:19:01.153                   : uk:Епізод 13
01:34:51.102                   : uk:Епізод 14
01:43:20.986                   : uk:Епізод 15
01:44:12.663                   : uk:Епізод 16
01:52:05.885                   : uk:Епізод 17
Джерело:


Срібний реліз (на рейтинг впливає 50% завантаженого)
 Трекер:    Зареєстрований   

Завантажити / скачати фільм українською



відео для новачків



 Зареєстрований:   2016-11-04 18:00
 Розмір:   1.81 GB 
 Оцінка фільму:   7.8/10 (Голосів: 4)
   
Інші релізи
Bod_zik99 
VIP


З нами з: 28.12.13
Востаннє: 08.12.16
Повідомлень: 826

2016-11-04 13:59  
О,давно чекаю на цей фільм.
bot 
робот


З нами з: 30.09.07
Востаннє: 26.05.05
Повідомлень: 16030

2016-11-04 18:00  
Тему перенесено з Анонси релізів до форуму Фільми


krigg070

Ваш часовий пояс: GMT + 2 Години

Нова тема   Відповісти