Завантажити та скачати торренти українською


Мисливці на привидів [Розширена версія] / Ghostbusters [Extended Edition] (2016) AVC Ukr/Eng | Sub Ukr/Eng

Нові коментарі

Нова тема   Відповісти
Автор Повідомлення
Anonymous 







2016-11-03 01:33  
Мисливці на привидів (Розширена версія) / Ghostbusters (Extended Edition) (2016) AVC Ukr/Eng | Sub Ukr/Eng



Альтернативний постер

Мисливці на привидів [Розширена версія] / Ghostbusters [Extended Edition] (2016) AVC Ukr/Eng | Sub Ukr/Eng
повнорозмірні зображення відкриються по кліку (з натиснутим CTRL чи кліком середньою кнопкою мишки - у новій вкладці)


Жанр: екшн, комедія, фентезі
Країна: США, Австралія



Кінокомпанія: Columbia Pictures, Feigco Entertainment, Ghostcorps
Режисер: Пол Фіґ / Paul Feig
Актори: Мелісса МакКарті / Melissa McCarthy, Крістен Віґ / Kristen Wiig, Кейт Маккіннон / Kate McKinnon, Леслі Джонс / Leslie Jones, Кріс Гемсворт / Chris Hemsworth, Сесілі Стронґ / Cecily Strong, Енді Ґарсія / Andy Garcia, Метт Волш / Matt Walsh, Ніл Кейсі / Neil Casey, Чарльз Денс / Charles Dance, Майкл Кеннет Вільямс / Michael Kenneth Williams та інші

Сюжет:
Тридцять років тому мисливці за привидами врятували Нью-Йорк від навали привидів, але тепер місту знову загрожує небезпека. Колишні герої не можуть стати на його захист, але знаходяться і інші відважні люди, які все своє життя присвятили вивченню паранормальних явищ. Еббі Єйтс об'єднується з Ерін Ґілберт, мабуть найкращим фахівцем у квантовій фізиці, і разом вони збирають команду нових мисливців за привидами, в яку приймають відмінного інженера Джилліан Гольцман, співробітницю метрополітену Петті Толан, котра знає місто як свої п'ять пальців, і секретаря - красеня Кевіна. Разом вони починають боротьбу з нечистою силою, що тероризує мегаполіс...


Тривалість: 02:13:44 [Розширена версія] - Порівняння Театральної та Розширеної версій
Якість: AVC
Відео:
кодек:
розмір кадру: 1024 х 428
бітрейт: 3000 Кбіт/с

Аудіо # 1:
мова: українська
озвучення: професійний дубльований | студія LeDoyen
переклад: Олекса Негребецький
кодек: 5.1
бітрейт: 384 Кбіт/с
Інформація про дубляж
Переклад: Олекса Негребецький
Режисер дубляжу: Павло Скороходько
Звукорежисер: Альона Шиманович
Звукорежисер перезапису: Олег Кульчицький
Координатор дубляжу: Аліна Гаєвська
Ролі дублювали: Руслана Писанка, Світлана Шекера, Ольга Радчук, Катерина Кістень, Дмитро Завадський, Дмитро Гаврилов, та інші
Особлива подяка Олені Узлюк

Фільм дубльовано студією LeDoyen на замовлення B&H Film Distribution
Аудіо # 2:
мова: англійська
переклад: оригінал
кодек: 5.1
бітрейт: 448 Кбіт/с

Субтитри #1:
мова: українська
тип: програмні (м'які)
формат: *.srt

Субтитри #2-3:
мова: англійська (повні, SDH)
тип: програмні (м'які)
формат: *.srt
MediaInfo
Код:
Complete name               : Ghostbusters [Extended] (2016) [Ukr,Eng sub.Ukr,Eng] AVC [Hurtom].mkv
Format                      : Matroska
Format version              : Version 4 / Version 2
File size                   : 3.58 GiB
Duration                    : 2 h 13 min
Overall bit rate            : 3 835 kb/s
Movie name                  : Мисливці на привидів [Розширена версія] / Ghostbusters [Extended cut] (2016) [Ukr,Eng sub.Ukr,Eng] AVC [Hurtom]

Video
ID                          : 1
Format                      : AVC
Format/Info                 : Advanced Video Codec
Format profile              : [email protected]
Format settings, CABAC      : Yes
Format settings, ReFrames   : 12 frames
Codec ID                    : V_MPEG4/ISO/AVC
Duration                    : 2 h 13 min
Bit rate                    : 3 000 kb/s
Width                       : 1 024 pixels
Height                      : 428 pixels
Display aspect ratio        : 2.40:1
Frame rate mode             : Constant
Frame rate                  : 23.976 (23976/1000) FPS
Color space                 : YUV
Chroma subsampling          : 4:2:0
Bit depth                   : 8 bits
Scan type                   : Progressive
Bits/(Pixel*Frame)          : 0.285
Stream size                 : 2.80 GiB (78%)
Title                       : Мисливці на привидів [Розширена версія] / Ghostbusters [Extended Edition] AVC [R.G.Resident]
Writing library             : core 146 r2538 121396c
Encoding settings           : cabac=1 / ref=12 / deblock=1:-3:-3 / analyse=0x3:0x113 / me=umh / subme=11 / psy=1 / psy_rd=1.00:0.00 / mixed_ref=1 / me_range=48 / chroma_me=1 / trellis=2 / 8x8dct=1 / cqm=0 / deadzone=21,11 / fast_pskip=0 / chroma_qp_offset=-2 / threads=12 / lookahead_threads=3 / sliced_threads=0 / nr=0 / decimate=0 / interlaced=0 / bluray_compat=0 / constrained_intra=0 / bframes=11 / b_pyramid=2 / b_adapt=2 / b_bias=0 / direct=3 / weightb=1 / open_gop=0 / weightp=2 / keyint=240 / keyint_min=23 / scenecut=40 / intra_refresh=0 / rc_lookahead=40 / rc=2pass / mbtree=1 / bitrate=3000 / ratetol=1.0 / qcomp=0.60 / qpmin=0 / qpmax=69 / qpstep=4 / cplxblur=20.0 / qblur=0.5 / vbv_maxrate=50000 / vbv_bufsize=62500 / nal_hrd=none / filler=0 / ip_ratio=1.40 / aq=1:1.00
Language                    : English
Default                     : Yes
Forced                      : No

Audio #1
ID                          : 2
Format                      : AC-3
Format/Info                 : Audio Coding 3
Mode extension              : CM (complete main)
Format settings, Endianness : Big
Codec ID                    : A_AC3
Duration                    : 2 h 13 min
Bit rate mode               : Constant
Bit rate                    : 384 kb/s
Channel(s)                  : 6 channels
Channel positions           : Front: L C R, Side: L R, LFE
Sampling rate               : 48.0 kHz
Frame rate                  : 31.250 FPS (1536 spf)
Compression mode            : Lossy
Stream size                 : 367 MiB (10%)
Title                       : Dub [LeDoyen, Blu-ray CEE] 5.1 384 Kbps
Language                    : Ukrainian
Default                     : Yes
Forced                      : No

Audio #2
ID                          : 3
Format                      : AC-3
Format/Info                 : Audio Coding 3
Mode extension              : CM (complete main)
Format settings, Endianness : Big
Codec ID                    : A_AC3
Duration                    : 2 h 13 min
Bit rate mode               : Constant
Bit rate                    : 448 kb/s
Channel(s)                  : 6 channels
Channel positions           : Front: L C R, Side: L R, LFE
Sampling rate               : 48.0 kHz
Frame rate                  : 31.250 FPS (1536 spf)
Compression mode            : Lossy
Stream size                 : 429 MiB (12%)
Title                       : Original, 5.1 448 Kbps
Language                    : English
Default                     : No
Forced                      : No

Text #1
ID                          : 4
Format                      : UTF-8
Codec ID                    : S_TEXT/UTF8
Codec ID/Info               : UTF-8 Plain Text
Duration                    : 2 h 12 min
Bit rate                    : 126 b/s
Count of elements           : 2388
Stream size                 : 123 KiB (0%)
Title                       : Ukr full
Language                    : Ukrainian
Default                     : No
Forced                      : No

Text #2
ID                          : 5
Format                      : UTF-8
Codec ID                    : S_TEXT/UTF8
Codec ID/Info               : UTF-8 Plain Text
Duration                    : 2 h 12 min
Bit rate                    : 92 b/s
Count of elements           : 2621
Stream size                 : 89.8 KiB (0%)
Title                       : Eng full
Language                    : English
Default                     : No
Forced                      : No

Text #3
ID                          : 6
Format                      : UTF-8
Codec ID                    : S_TEXT/UTF8
Codec ID/Info               : UTF-8 Plain Text
Duration                    : 2 h 12 min
Bit rate                    : 100 b/s
Count of elements           : 2903
Stream size                 : 97.8 KiB (0%)
Title                       : Eng SDH
Language                    : English
Default                     : No
Forced                      : No

Menu
00:00:00.000                : en:00:00:00.000
00:10:26.626                : en:00:10:26.626
00:17:52.405                : en:00:17:52.405
00:23:00.879                : en:00:23:00.879
00:28:51.521                : en:00:28:51.521
00:37:36.629                : en:00:37:36.629
00:42:48.566                : en:00:42:48.566
00:49:06.068                : en:00:49:06.068
01:00:15.153                : en:01:00:15.153
01:05:10.073                : en:01:05:10.073
01:10:32.978                : en:01:10:32.978
01:16:51.940                : en:01:16:51.940
01:29:05.882                : en:01:29:05.882
01:37:40.521                : en:01:37:40.521
01:47:35.073                : en:01:47:35.073
01:59:31.706                : en:01:59:31.706


Джерела та подяки: &
Подяка Gelios'у за постер





ЗАЛИШАЙТЕСЬ ЯКОМОГА ДОВШЕ НА РОЗДАЧІ
ЗАВАНТАЖИВ САМ - ДАЙ ЗАВАНТАЖИТИ ІНШИМ!


 Трекер:    Зареєстрований   

Завантажити / скачати фільм українською



відео для новачків



 Зареєстрований:   2016-11-03 02:04
 Розмір:   3.58 GB 
 Оцінка фільму:   5.2/10 (Голосів: 30)
   
НТН 
Відео Гуртом - фільмокрай
Відео Гуртом - фільмокрай


З нами з: 25.12.11
Востаннє: 10.11.16
Повідомлень: 2001

2016-11-05 10:41  
Такого поганого ремейку я ще не бачив.
Найкращим на мою думку, був ремейк фільму Ґодзілла (2014).

Blisscounter 
Свій


З нами з: 20.04.12
Востаннє: 03.12.16
Повідомлень: 95

2016-11-06 10:47  
Для нових "Мисливців" було б більш логічним випустити звужену версію - шматок з фінальними титрами, - щоб глядачі не марнували свого часу більше кількох хвилин
Rokers 
Новенький


З нами з: 21.11.16
Востаннє: 03.12.16
Повідомлень: 7

2016-11-21 22:42  
Об `ємне зоображення тiльки в цьому релiзi http://toloka.to/t77118
чи в iнших теж Об `ємне?

Anonymous 







2016-11-21 22:53  
Rokers, якщо ти маєш на увазі 3D - то воно лише там - http://toloka.to/t76859

Додано через 1 хвилину 17 секунд:

орієнтуйся по назві - в ній має бути "3D"

Rokers 
Новенький


З нами з: 21.11.16
Востаннє: 03.12.16
Повідомлень: 7

2016-11-21 22:58  
igor911
я про цей релiз http://toloka.to/t77118
лише там таке зоображення?

Anonymous 







2016-11-21 23:13  
Rokers написано:
лише тут таке зоображення?

яке "таке"? у всіх релізах звичайне, 2D, зображення, а в http://toloka.to/t76859 3D зображення для перегляду на 3D обладнанні (наприклад, 3Д телек+окуляри)

Rokers 
Новенький


З нами з: 21.11.16
Востаннє: 03.12.16
Повідомлень: 7

2016-11-21 23:15  
Ваш часовий пояс: GMT + 2 Години

Нова тема   Відповісти