Завантажити та скачати торренти українською


Стартрек: За межами Всесвіту / Star Trek Beyond (2016) 720p Ukr/Eng | Sub Ukr/Eng

Нові коментарі

Нова тема   Відповісти
Автор Повідомлення
Anonymous 







2016-11-01 14:43  
Стартрек: За межами Всесвіту / Star Trek Beyond (2016) 720p Ukr/Eng | Sub Ukr/Eng

Стартрек: За межами Всесвіту / Star Trek Beyond (2016) 720p Ukr/Eng | Sub Ukr/Eng

Альтернативні постери






повнорозмірні зображення відкриються по кліку (з натиснутим CTRL чи кліком середньою кнопкою мишки - у новій вкладці)


Жанр: фантастика, бойовик, трилер, пригодницький
Країна: США



Кінокомпанія: Paramount Pictures, Skydance Productions, Alibaba Pictures Group, Huahua Media, Bad Robot, Sneaky Shark, Perfect Storm Entertainment
Режисер: Джастін Лін / Justin Lin
Продюсер: Джей Джей Абрамс / J.J. Abrams
Актори: Кріс Пайн / Chris Pine, Закарі Квінто / Zachary Quinto, Саймон Пегг / Simon Pegg, Карл Урбан / Karl Urban, Зоі Салдана / Zoe Saldana, Ідріс Ельба / Idris Elba, Софія Бутелла / Sofia Boutella, Джон Чо / John Cho, Шоре Агдашлу / Shohreh Aghdashloo та інші

Сюжет:
Від режисера "Форсажу" та популярного серіалу "Справжній детектив" Джастіна Ліна, а також продюсера "Вулиця Монстро, 10" і "Місія неможлива: Нація ізгоїв" Джей Джей Абрамса. Продовження фантастичних пригод екіпажу зоряного корабля "Ентерпрайз" на чолі з капітаном Т. Кірком. Під час місії на незвідану територію зоряне судно і команда були атаковані невідомими прибульцями. Їм довелося покинути "Ентерпрайз" і висадитися на планету, де немає ні зв'язку, ні засобів порятунку. Поки капітан Кірк намагається зібрати весь свій екіпаж і придумати як їм повернутися на Землю, на горизонті з'являється новий ворог.

Офіційний український трейлер #1:
Інші українські офіційні трейлери





Рейтинг MPAA: PG-13 - дітям до 13 років перегляд не бажаний
Вікова категорія: 12+

Тривалість: 02:02:22
Якість: 720p
Відео:
кодек:
розмір кадру: 1280 х 536
бітрейт: 6326 Кбіт/с [crf=15.8]

Аудіо # 1:
мова: українська
переклад: професійний дубльований
кодек: 2.0
бітрейт: 192 Кбіт/с

Аудіо # 2:
мова: англійська
переклад: оригінал
кодек: -EX 5.1
бітрейт: 640 Кбіт/с

Субтитри # 1-2:
мова: українська (форсовані, повні)
тип: програмні (м'які)
формат: *.srt

Субтитри # 3-5:
мова: англійська (форсовані, повні, SDH)
тип: програмні (м'які)
формат: *.srt

Збережено оригінальні розділи, як на Blu-ray.
MediaInfo
Код:
Complete name               : Star Trek Beyond (2016) [Ukr,Eng sub.Ukr,Eng] 720p [Hurtom].mkv
Format                      : Matroska
Format version              : Version 4 / Version 2
File size                   : 6.25 GiB
Duration                    : 2 h 2 min
Overall bit rate            : 7 313 kb/s

Video
ID                          : 1
Format                      : AVC
Format/Info                 : Advanced Video Codec
Format profile              : [email protected]
Format settings, CABAC      : Yes
Format settings, ReFrames   : 12 frames
Codec ID                    : V_MPEG4/ISO/AVC
Duration                    : 2 h 2 min
Bit rate                    : 6 478 kb/s
Width                       : 1 280 pixels
Height                      : 536 pixels
Display aspect ratio        : 2.40:1
Frame rate mode             : Constant
Frame rate                  : 23.976 (24000/1001) FPS
Color space                 : YUV
Chroma subsampling          : 4:2:0
Bit depth                   : 8 bits
Scan type                   : Progressive
Bits/(Pixel*Frame)          : 0.394
Stream size                 : 5.54 GiB (89%)
Title                       : Стартрек: За межами Всесвіту / Star Trek Beyond (2016) 720p [HDCLUB]
Writing library             : core 148 r2721+55 e19946b t_mod_Custom [[email protected] X86_64]
Encoding settings           : cabac=1 / ref=12 / deblock=1:-3:-3 / analyse=0x3:0x133 / me=umh / subme=11 / psy=1 / fade_compensate=0.00 / psy_rd=1.05:0.00 / mixed_ref=1 / me_range=32 / chroma_me=1 / trellis=2 / 8x8dct=1 / cqm=0 / deadzone=21,11 / fast_pskip=0 / chroma_qp_offset=-2 / threads=12 / lookahead_threads=3 / sliced_threads=0 / nr=0 / decimate=0 / interlaced=0 / bluray_compat=0 / constrained_intra=0 / fgo=0 / bframes=10 / b_pyramid=2 / b_adapt=2 / b_bias=0 / direct=3 / weightb=1 / open_gop=0 / weightp=2 / keyint=250 / keyint_min=23 / scenecut=40 / intra_refresh=0 / rc=crf / mbtree=0 / crf=15.8000 / qcomp=0.63 / qpmin=0:0:0 / qpmax=69:69:69 / qpstep=4 / ip_ratio=1.30 / pb_ratio=1.20 / aq=3:0.60 / aq-sensitivity=10.00 / aq-factor=1.00:1.00:1.00 / aq2=0 / aq3=0
Language                    : English
Default                     : Yes
Forced                      : No
Color range                 : Limited
Matrix coefficients         : BT.709

Audio #1
ID                          : 2
Format                      : AC-3
Format/Info                 : Audio Coding 3
Mode extension              : CM (complete main)
Format settings, Endianness : Big
Codec ID                    : A_AC3
Duration                    : 2 h 2 min
Bit rate mode               : Constant
Bit rate                    : 192 kb/s
Channel(s)                  : 2 channels
Channel positions           : Front: L R
Sampling rate               : 48.0 kHz
Frame rate                  : 31.250 FPS (1536 spf)
Compression mode            : Lossy
Stream size                 : 168 MiB (3%)
Title                       : Dub, 2.0 192 Kbps [Hurtom]
Language                    : Ukrainian
Default                     : Yes
Forced                      : No

Audio #2
ID                          : 3
Format                      : AC-3
Format/Info                 : Audio Coding 3
Mode extension              : CM (complete main)
Format settings, Endianness : Big
Codec ID                    : A_AC3
Duration                    : 2 h 2 min
Bit rate mode               : Constant
Bit rate                    : 640 kb/s
Channel(s)                  : 6 channels
Channel positions           : Front: L C R, Side: L R, LFE
Sampling rate               : 48.0 kHz
Frame rate                  : 31.250 FPS (1536 spf)
Compression mode            : Lossy
Stream size                 : 560 MiB (9%)
Title                       : Original, -EX 5.1 640 Kbps
Language                    : English
Default                     : No
Forced                      : No

Text #1
ID                          : 4
Format                      : UTF-8
Codec ID                    : S_TEXT/UTF8
Codec ID/Info               : UTF-8 Plain Text
Duration                    : 1 h 42 min
Bit rate                    : 1 b/s
Count of elements           : 18
Stream size                 : 848 Bytes (0%)
Title                       : Ukr forced [Hurtom-igor911]
Language                    : Ukrainian
Default                     : Yes
Forced                      : Yes

Text #2
ID                          : 5
Format                      : UTF-8
Codec ID                    : S_TEXT/UTF8
Codec ID/Info               : UTF-8 Plain Text
Duration                    : 2 h 0 min
Bit rate                    : 67 b/s
Count of elements           : 1295
Stream size                 : 59.7 KiB (0%)
Title                       : Ukr full [BD EUR]
Language                    : Ukrainian
Default                     : No
Forced                      : No

Text #3
ID                          : 6
Format                      : UTF-8
Codec ID                    : S_TEXT/UTF8
Codec ID/Info               : UTF-8 Plain Text
Duration                    : 59 min 3 s
Bit rate                    : 0 b/s
Count of elements           : 15
Stream size                 : 365 Bytes (0%)
Title                       : Eng Forced [iTunes]
Language                    : English
Default                     : No
Forced                      : No

Text #4
ID                          : 7
Format                      : UTF-8
Codec ID                    : S_TEXT/UTF8
Codec ID/Info               : UTF-8 Plain Text
Duration                    : 1 h 51 min
Bit rate                    : 51 b/s
Count of elements           : 1300
Stream size                 : 42.5 KiB (0%)
Title                       : Eng full
Language                    : English
Default                     : No
Forced                      : No

Text #5
ID                          : 8
Format                      : UTF-8
Codec ID                    : S_TEXT/UTF8
Codec ID/Info               : UTF-8 Plain Text
Duration                    : 1 h 51 min
Bit rate                    : 58 b/s
Count of elements           : 1527
Stream size                 : 47.5 KiB (0%)
Title                       : Eng SDH
Language                    : English
Default                     : No
Forced                      : No

Menu
00:00:00.000                : en:00:00:00.000
00:08:26.548                : en:00:08:26.548
00:16:11.637                : en:00:16:11.637
00:32:38.290                : en:00:32:38.290
00:42:16.367                : en:00:42:16.367
00:52:22.264                : en:00:52:22.264
00:59:50.629                : en:00:59:50.629
01:12:05.530                : en:01:12:05.530
01:22:34.449                : en:01:22:34.449
01:33:00.950                : en:01:33:00.950
01:40:33.319                : en:01:40:33.319
01:47:38.994                : en:01:47:38.994
01:52:32.663                : en:01:52:32.663
01:55:41.351                : en:01:55:41.351
Скріншоти
Оригінал <----------> Ріп









Джерело: &
Подяка п.Hanway'ю та п.AngryBirdsUA за український звук, а п.Neytreenor'у за допомогу з субтитрами.
Переклад форсованих українських субтитрів та OCR повних - igor911.


Підтримати купівлю інших фільмів можна тут



 Трекер:    Зареєстрований   

Завантажити / скачати фільм українською



відео для новачків



 Зареєстрований:   2016-11-06 17:30
 Розмір:   6.25 GB 
 Оцінка фільму:   6.5/10 (Голосів: 30)
   
chimei 
Новенький


З нами з: 25.07.12
Востаннє: 09.12.16
Повідомлень: 3

2016-11-02 13:18  
Є сенс дивитися не знаючи подій попередніх частин?
Denton17 
Новенький


З нами з: 23.01.13
Востаннє: 10.12.16
Повідомлень: 12

2016-11-02 17:22  
chimei
Ну, так, а що заважає переглянути попередні частини? Обидві попередні частини присутні тут.

Mariscia 
Новенький


З нами з: 14.01.16
Востаннє: 09.12.16
Повідомлень: 8

2016-11-02 19:26  
chimei
Так, сюжетно вони не пов'язані. Але рекомендую подивитися і перші дві частини: крім того, що вони супер, також ти будеш краще розуміти героїв, їх взаємовідносини та вчинки.

bot 
робот


З нами з: 30.09.07
Востаннє: 26.05.05
Повідомлень: 16050

2016-11-06 17:30  
Тему перенесено з Анонси релізів до форуму Фільми в HD


igor911

Lenka007 
Новенький


З нами з: 03.05.15
Востаннє: 09.12.16
Повідомлень: 4

2016-11-08 18:04  
Mariscia
підкажіть, будь ласка, назви попередніх фільмів. Дякую)

Anonymous 







2016-11-08 18:23  
Lenka007, не претендуючи на повноту інформації, ось останні два фільми з попередніх 18ти (за версією кінопоіска): Зоряний шлях / Star Trek (2009) та Стартрек: Відплата / Star Trek Into Darkness (2013).



Хто знає, підкажіть, як в imdb можна глянути сіквели/пріквели фільму на його сторінці.

AlexTranslations 
Новенький


З нами з: 10.11.16
Востаннє: 09.12.16
Повідомлень: 6

2016-12-04 21:49  
Ну зовсім поганий фільм.(((( Краще би перекладали оригінал, а не Абрамсову підробку, бо ще не вмерли фанати серіалу і я певен, що дуже багато охочих було би глянути на все рідною солов'їною мовою.
andreu1999 
Свій


З нами з: 20.10.14
Востаннє: 09.12.16
Повідомлень: 79

2016-12-06 16:47  
Як на мене всі фільми Стартрек - повний шлак.
5 з 10.

AlexTranslations 
Новенький


З нами з: 10.11.16
Востаннє: 09.12.16
Повідомлень: 6

2016-12-09 18:46  
andreu1999, воу-во, полегше, крім трьох шлакових нових фільмів є ахеренні старі фільми.
Ваш часовий пояс: GMT + 2 Години

Нова тема   Відповісти