Завантажити та скачати торренти українською


Полювання на диких людей / Hunt for the Wilderpeople (2016) 720p Ukr/Eng | Sub Eng

Нові коментарі

Нова тема   Відповісти
Автор Повідомлення
Anonymous 







2016-11-01 04:21  
Полювання на диких людей / Hunt for the Wilderpeople (2016) 720p Ukr/Eng | Sub Eng



Жанр: драма, комедія, пригодницький, сімейний
Країна: Нова Зеландія



Кінокомпанія: Piki Films, Defender Films, Curious Film
Режисер: Тайка Вайтіті / Taika Waititi
Актори: Сем Ніл, Джуліан Деннісон, Ріма Те Віата, Рейчел Хауз, Тіореоре Нгатай-Мельбурн, Оскар Найтлі, Різ Дарбі та інші

Сюжет:
Сирота Ріккі Бейкер – невиправний хуліган. Співробітниця соціальної служби Пола Голл відвозить підлітка в сільську місцевість, де живе єдина, готова прийняти його сім'я – Белла та її відлюдькуватий чоловік Гек. Коли Белла вмирає і соціальний захист збирається забрати Ріккі, хлопець тікає в неозорий новозеландський буш. Гек відправляється за ним. Навіжена Пола переконана, що чоловік збожеволів через смерть дружини і викрав підлітка. Вона оголошує загальнонаціональне полювання на втікачів.

Український трейлер зі зразком озвучення:


Рейтинг MPAA: PG-13 - дітям до 13 років перегляд не бажаний
Вікова категорія: 12+

Тривалість: 01:40:58
Якість: 720p
Відео:
кодек:
розмір кадру: 1280 х 536
бітрейт: 5366 Кбіт/с [crf=16.8]

Аудіо #1:
мова: українська
переклад: одноголосий закадровий | Герман Лукич студіо
кодек: 5.1
бітрейт: 320 Кбіт/с

Аудіо #2:
мова: англійська
переклад: оригінал
кодек: 5.1
бітрейт: 640 Кбіт/с

Субтитри #1:
мова: українська (форсовані - на пісні)
тип: програмні (м'які)
формат: *.srt

Субтитри #2-3:
мова: англійська (повні, SDH)
тип: програмні (м'які)
формат: *.srt

Збережено оригінальні розділи, як на Blu-ray.
MediaInfo
Код:
Complete name               : Hunt for the Wilderpeople (2016) [Ukr,Eng sub.Eng] 720p [Hurtom].mkv
Format                      : Matroska
Format version              : Version 4 / Version 2
File size                   : 4.46 GiB
Duration                    : 1 h 40 min
Overall bit rate            : 6 327 kb/s
Movie name                  : Полювання на диких людей / Hunt for the Wilderpeople (2016) [Ukr,Eng sub.Eng] 720p [Hurtom]

Video
ID                          : 1
Format                      : AVC
Format/Info                 : Advanced Video Codec
Format profile              : [email protected]
Format settings, CABAC      : Yes
Format settings, ReFrames   : 12 frames
Codec ID                    : V_MPEG4/ISO/AVC
Duration                    : 1 h 40 min
Bit rate                    : 5 366 kb/s
Width                       : 1 280 pixels
Height                      : 536 pixels
Display aspect ratio        : 2.40:1
Frame rate mode             : Constant
Frame rate                  : 24.000 FPS
Color space                 : YUV
Chroma subsampling          : 4:2:0
Bit depth                   : 8 bits
Scan type                   : Progressive
Bits/(Pixel*Frame)          : 0.326
Stream size                 : 3.79 GiB (85%)
Title                       : Полювання на диких людей / Hunt for the Wilderpeople (2016) 720p [ExKinoRay]
Writing library             : core 148 r2721 72d53ab
Encoding settings           : cabac=1 / ref=12 / deblock=1:-3:-3 / analyse=0x3:0x133 / me=umh / subme=10 / psy=1 / psy_rd=1.15:0.00 / mixed_ref=1 / me_range=32 / chroma_me=1 / trellis=2 / 8x8dct=1 / cqm=0 / deadzone=21,11 / fast_pskip=0 / chroma_qp_offset=-2 / threads=6 / lookahead_threads=1 / sliced_threads=0 / nr=0 / decimate=0 / interlaced=0 / bluray_compat=0 / constrained_intra=0 / bframes=10 / b_pyramid=2 / b_adapt=2 / b_bias=0 / direct=3 / weightb=1 / open_gop=0 / weightp=2 / keyint=250 / keyint_min=23 / scenecut=40 / intra_refresh=0 / rc_lookahead=60 / rc=crf / mbtree=0 / crf=16.8 / qcomp=0.65 / qpmin=0 / qpmax=69 / qpstep=4 / vbv_maxrate=62500 / vbv_bufsize=78125 / crf_max=0.0 / nal_hrd=none / filler=0 / ip_ratio=1.30 / pb_ratio=1.20 / aq=3:0.75
Language                    : English
Default                     : Yes
Forced                      : No

Audio #1
ID                          : 2
Format                      :
Format/Info                 : Advanced Audio Codec
Format profile              : LC
Codec ID                    : A_AAC
Duration                    : 1 h 40 min
Bit rate                    : 317 kb/s
Channel(s)                  : 6 channels
Channel positions           : Front: L C R, Side: L R, LFE
Sampling rate               : 48.0 kHz
Frame rate                  : 46.875 FPS (1024 spf)
Compression mode            : Lossy
Stream size                 : 229 MiB (5%)
Title                       : AVO [Herman Lukych studio], 5.1 320 Kbps
Language                    : Ukrainian
Default                     : Yes
Forced                      : No

Audio #2
ID                          : 3
Format                      : AC-3
Format/Info                 : Audio Coding 3
Mode extension              : CM (complete main)
Format settings, Endianness : Big
Codec ID                    : A_AC3
Duration                    : 1 h 40 min
Bit rate mode               : Constant
Bit rate                    : 640 kb/s
Channel(s)                  : 6 channels
Channel positions           : Front: L C R, Side: L R, LFE
Sampling rate               : 48.0 kHz
Frame rate                  : 31.250 FPS (1536 spf)
Compression mode            : Lossy
Stream size                 : 462 MiB (10%)
Title                       : Original, 5.1 640 Kbps
Language                    : English
Default                     : No
Forced                      : No

Text #1
ID                          : 4
Format                      : UTF-8
Codec ID                    : S_TEXT/UTF8
Codec ID/Info               : UTF-8 Plain Text
Duration                    : 1 h 25 min
Bit rate                    : 7 b/s
Count of elements           : 109
Stream size                 : 4.73 KiB (0%)
Title                       : for songs
Language                    : Ukrainian
Default                     : Yes
Forced                      : Yes

Text #2
ID                          : 5
Format                      : UTF-8
Codec ID                    : S_TEXT/UTF8
Codec ID/Info               : UTF-8 Plain Text
Duration                    : 1 h 37 min
Bit rate                    : 56 b/s
Count of elements           : 1192
Stream size                 : 40.2 KiB (0%)
Title                       : Eng Full
Language                    : English
Default                     : No
Forced                      : No

Text #3
ID                          : 6
Format                      : UTF-8
Codec ID                    : S_TEXT/UTF8
Codec ID/Info               : UTF-8 Plain Text
Duration                    : 1 h 39 min
Bit rate                    : 66 b/s
Count of elements           : 1555
Stream size                 : 48.2 KiB (0%)
Title                       : Eng SDH
Language                    : English
Default                     : No
Forced                      : No

Menu
00:00:00.000                : en:00:00:00.000
00:06:04.792                : en:00:06:04.792
00:16:58.917                : en:00:16:58.917
00:25:29.375                : en:00:25:29.375
00:36:20.042                : en:00:36:20.042
00:43:50.958                : en:00:43:50.958
00:51:02.833                : en:00:51:02.833
00:59:52.167                : en:00:59:52.167
01:08:52.208                : en:01:08:52.208
01:18:39.583                : en:01:18:39.583
01:29:48.417                : en:01:29:48.417
01:36:13.625                : en:01:36:13.625
Скріншоти
будуть
Джерело: &
Подяка п.1101 за переклад та озвучення


Авторський реліз (завантажувати можна без реєстрації)
 Трекер:    Зареєстрований   

Завантажити / скачати фільм українською



відео для новачків



 Зареєстрований:   2016-11-01 04:38
 Розмір:   4.46 GB 
 Оцінка фільму:   7/10 (Голосів: 36)
   
Інші релізи
Anonymous 







2016-11-01 10:20  
leicheman, не повтор.
Додаток до релізів в якості HD написано:
4. За винятком ремуксів, дозволено викладати виключно релізи, які кодовані за допомогою або H.265

ika1963 
Відео Гуртом - дизайнер
Відео Гуртом - дизайнер


З нами з: 13.05.10
Востаннє: 08.12.16
Повідомлень: 200

2016-11-01 22:02  
1080 буде?
Anonymous 







2016-11-01 22:02  
ika1963, а треба?
casper101 
Свій


З нами з: 03.12.09
Востаннє: 09.12.16
Повідомлень: 94

2016-11-04 19:12  
прикольно в цьому фільмі є наш Українськиц "Щендирик".Крутяк.
oster_ok 
Відео Гуртом - підтримка та поширення
Відео Гуртом - підтримка та поширення


З нами з: 20.11.11
Востаннє: 07.12.16
Повідомлень: 38

2016-11-05 15:04  
варто дивитися?
Kel 
Новенький


З нами з: 31.10.10
Востаннє: 08.12.16
Повідомлень: 9

2016-11-05 18:29  
Дуже класний фыльм!
vovang6 
Свій


З нами з: 27.08.12
Востаннє: 08.12.16
Повідомлень: 61

2016-11-06 11:21  
Фільм чудовий, є моменти посміятися і поміркувати.
oster_ok 
Відео Гуртом - підтримка та поширення
Відео Гуртом - підтримка та поширення


З нами з: 20.11.11
Востаннє: 07.12.16
Повідомлень: 38

2016-11-06 19:27  
9/10 за український "Щедрик" на початку 10 розділу!
chill 
Новенький


З нами з: 23.10.09
Востаннє: 08.12.16
Повідомлень: 2

2016-11-07 08:37  
Фільм - краще з того що дивився в цьому році. Однозначно раджу до перегляду. Tongue up (2)
Wolfdemon 
Новенький


З нами з: 06.01.12
Востаннє: 07.12.16
Повідомлень: 1

2016-11-09 18:43  
"Величайний" фільм Wide grin
Hovik 
Новенький


З нами з: 28.12.15
Востаннє: 09.12.16
Повідомлень: 3

2016-11-27 23:13  
Дуже сподобався фільм, шкода що немає в кращій якості для домашньої колекції.
Olkos 
VIP


З нами з: 07.03.09
Востаннє: 08.12.16
Повідомлень: 534

2016-11-29 23:25  
Чудовий фільм.
Прекрасна природа, хороша гра Сема Ніла та й малий видно, що старався.

Ваш часовий пояс: GMT + 2 Години

Нова тема   Відповісти