Завантажити та скачати торренти українською


Мисливці на привидів [Розширена версія] / Ghostbusters [Extended Edition] (2016) 1080p Ukr/Eng | Sub Ukr/Eng

Нові коментарі

Нова тема   Відповісти
Автор Повідомлення
Anonymous 







2016-11-01 01:08  
Мисливці на привидів (Розширена версія) / Ghostbusters (Extended Edition) (2016) 1080p Ukr/Eng | Sub Ukr/Eng



Альтернативний постер

Мисливці на привидів [Розширена версія] / Ghostbusters [Extended Edition] (2016) 1080p Ukr/Eng | Sub Ukr/Eng
повнорозмірні зображення відкриються по кліку (з натиснутим CTRL чи кліком середньою кнопкою мишки - у новій вкладці)


Жанр: екшн, комедія, фентезі
Країна: США, Австралія



Кінокомпанія: Columbia Pictures, Feigco Entertainment, Ghostcorps
Режисер: Пол Фіґ / Paul Feig
Актори: Мелісса МакКарті / Melissa McCarthy, Крістен Віґ / Kristen Wiig, Кейт Маккіннон / Kate McKinnon, Леслі Джонс / Leslie Jones, Кріс Гемсворт / Chris Hemsworth, Сесілі Стронґ / Cecily Strong, Енді Ґарсія / Andy Garcia, Метт Волш / Matt Walsh, Ніл Кейсі / Neil Casey, Чарльз Денс / Charles Dance, Майкл Кеннет Вільямс / Michael Kenneth Williams та інші

Сюжет:
Тридцять років тому мисливці за привидами врятували Нью-Йорк від навали привидів, але тепер місту знову загрожує небезпека. Колишні герої не можуть стати на його захист, але знаходяться і інші відважні люди, які все своє життя присвятили вивченню паранормальних явищ. Еббі Єйтс об'єднується з Ерін Ґілберт, мабуть найкращим фахівцем у квантовій фізиці, і разом вони збирають команду нових мисливців за привидами, в яку приймають відмінного інженера Джилліан Гольцман, співробітницю метрополітену Петті Толан, котра знає місто як свої п'ять пальців, і секретаря - красеня Кевіна. Разом вони починають боротьбу з нечистою силою, що тероризує мегаполіс...


Тривалість: 02:13:44 [Розширена версія] - Порівняння Театральної та Розширеної версій
Якість: 1080p [NTb]
Відео:
кодек:
розмір кадру: 1920 х 800
бітрейт: 14,5 Мбіт/с [crf=17]

Аудіо # 1:
мова: українська
озвучення: професійний дубльований | студія LeDoyen
переклад: Олекса Негребецький
кодек: 5.1
бітрейт: 384 Кбіт/с
Інформація про дубляж
Переклад: Олекса Негребецький
Режисер дубляжу: Павло Скороходько
Звукорежисер: Альона Шиманович
Звукорежисер перезапису: Олег Кульчицький
Координатор дубляжу: Аліна Гаєвська
Ролі дублювали: Руслана Писанка, Світлана Шекера, Ольга Радчук, Катерина Кістень, Дмитро Завадський, Дмитро Гаврилов, та інші
Особлива подяка Олені Узлюк

Фільм дубльовано студією LeDoyen на замовлення B&H Film Distribution
Аудіо # 2:
мова: англійська
переклад: оригінал
кодек: 5.1
бітрейт: 1509 Кбіт/с

Аудіо # 3:
мова: англійська
переклад: коментарі авторів 1
кодек: 2.0
бітрейт: 192 Кбіт/с

Аудіо # 4:
мова: англійська
переклад: коментарі авторів 2
кодек: 2.0
бітрейт: 192 Кбіт/с

Субтитри #1:
мова: українська
тип: програмні (м'які)
формат: *.srt

Субтитри #2-3:
мова: англійська (повні, SDH)
тип: програмні (м'які)
формат: *.srt
MediaInfo
Код:
Complete name               : Ghostbusters [Extended] (2016) [Ukr,Eng sub.Ukr,Eng] 1080p [Hurtom].mkv
Format                      : Matroska
Format version              : Version 4 / Version 2
File size                   : 15.6 GiB
Duration                    : 2 h 13 min
Overall bit rate            : 16.8 Mb/s
Movie name                  : Мисливці на привидів [Розширена версія] / Ghostbusters [Extended Edition] (2016) [Ukr,Eng sub.Ukr,Eng] 1080p [Hurtom]

Video
ID                          : 1
Format                      : AVC
Format/Info                 : Advanced Video Codec
Format profile              : [email protected]
Format settings, CABAC      : Yes
Format settings, ReFrames   : 4 frames
Codec ID                    : V_MPEG4/ISO/AVC
Duration                    : 2 h 13 min
Bit rate                    : 14.5 Mb/s
Width                       : 1 920 pixels
Height                      : 1 080 pixels
Display aspect ratio        : 16:9
Frame rate mode             : Constant
Frame rate                  : 23.976 (24000/1001) FPS
Color space                 : YUV
Chroma subsampling          : 4:2:0
Bit depth                   : 8 bits
Scan type                   : Progressive
Bits/(Pixel*Frame)          : 0.291
Stream size                 : 13.5 GiB (86%)
Title                       : Мисливці на привидів [Розширена версія] / Ghostbusters [Extended Edition] 1080p [HDClub]
Writing library             : core 148 r2705kMod 3f5ed56
Encoding settings           : cabac=1 / ref=4 / deblock=1:-3:-3 / analyse=0x3:0x133 / me=umh / subme=10 / psy=1 / fade_compensate=0.00 / psy_rd=0.90:0.00 / mixed_ref=1 / me_range=48 / chroma_me=1 / trellis=2 / 8x8dct=1 / cqm=0 / deadzone=21,11 / fast_pskip=1 / chroma_qp_offset=-2 / threads=12 / lookahead_threads=2 / sliced_threads=0 / nr=0 / decimate=1 / interlaced=0 / bluray_compat=0 / constrained_intra=0 / fgo=0 / bframes=8 / b_pyramid=2 / b_adapt=2 / b_bias=0 / direct=3 / weightb=1 / open_gop=0 / weightp=2 / keyint=250 / keyint_min=23 / scenecut=40 / intra_refresh=0 / rc=crf / mbtree=0 / crf=17.0000 / qcomp=0.60 / qpmin=0 / qpmax=69 / qpstep=4 / ip_ratio=1.30 / pb_ratio=1.20 / aq=3:0.75
Language                    : English
Default                     : Yes
Forced                      : No

Audio #1
ID                          : 2
Format                      : AC-3
Format/Info                 : Audio Coding 3
Mode extension              : CM (complete main)
Format settings, Endianness : Big
Codec ID                    : A_AC3
Duration                    : 2 h 13 min
Bit rate mode               : Constant
Bit rate                    : 384 kb/s
Channel(s)                  : 6 channels
Channel positions           : Front: L C R, Side: L R, LFE
Sampling rate               : 48.0 kHz
Frame rate                  : 31.250 FPS (1536 spf)
Compression mode            : Lossy
Stream size                 : 367 MiB (2%)
Title                       : Dub [LeDoyen, Blu-ray CEE] 5.1 384 Kbps
Language                    : Ukrainian
Default                     : Yes
Forced                      : No

Audio #2
ID                          : 3
Format                      :
Format/Info                 : Digital Theater Systems
Mode                        : 16
Format settings, Endianness : Big
Codec ID                    : A_DTS
Duration                    : 2 h 13 min
Bit rate mode               : Constant
Bit rate                    : 1 509 kb/s
Channel(s)                  : 6 channels
Channel positions           : Front: L C R, Side: L R, LFE
Sampling rate               : 48.0 kHz
Frame rate                  : 93.750 FPS (512 spf)
Bit depth                   : 24 bits
Compression mode            : Lossy
Delay relative to video     : 11 ms
Stream size                 : 1.41 GiB (9%)
Title                       : Original, 5.1 1509 Kbps
Language                    : English
Default                     : No
Forced                      : No

Audio #3
ID                          : 4
Format                      : AC-3
Format/Info                 : Audio Coding 3
Format profile              : Dolby Digital
Mode extension              : CM (complete main)
Format settings, Endianness : Big
Codec ID                    : A_AC3
Duration                    : 2 h 13 min
Bit rate mode               : Constant
Bit rate                    : 192 kb/s
Channel(s)                  : 2 channels
Channel positions           : Front: L R
Sampling rate               : 48.0 kHz
Frame rate                  : 31.250 FPS (1536 spf)
Compression mode            : Lossy
Stream size                 : 184 MiB (1%)
Title                       : 2.0 @ 192 kbps - Audio Commentary with Writer/Director Paul Feig and Writer Katie Dippold
Language                    : English
Default                     : No
Forced                      : No

Audio #4
ID                          : 5
Format                      : AC-3
Format/Info                 : Audio Coding 3
Format profile              : Dolby Digital
Mode extension              : CM (complete main)
Format settings, Endianness : Big
Codec ID                    : A_AC3
Duration                    : 2 h 13 min
Bit rate mode               : Constant
Bit rate                    : 192 kb/s
Channel(s)                  : 2 channels
Channel positions           : Front: L R
Sampling rate               : 48.0 kHz
Frame rate                  : 31.250 FPS (1536 spf)
Compression mode            : Lossy
Stream size                 : 184 MiB (1%)
Title                       : 2.0 @ 192 kbps - Audio Commentary with Editor Brent White, Producer Jessie Henderson, Production Designer Jeff Sage, Visual Effects Supervisor Pete Travers, and Special Effects Supervisor Mark Hawker
Language                    : English
Default                     : No
Forced                      : No

Text #1
ID                          : 6
Format                      : UTF-8
Codec ID                    : S_TEXT/UTF8
Codec ID/Info               : UTF-8 Plain Text
Duration                    : 2 h 12 min
Bit rate                    : 126 b/s
Count of elements           : 2388
Stream size                 : 123 KiB (0%)
Title                       : Full [Blu-ray CEE]
Language                    : Ukrainian
Default                     : No
Forced                      : No

Text #2
ID                          : 7
Format                      : UTF-8
Codec ID                    : S_TEXT/UTF8
Codec ID/Info               : UTF-8 Plain Text
Duration                    : 2 h 12 min
Bit rate                    : 90 b/s
Count of elements           : 2609
Stream size                 : 87.7 KiB (0%)
Title                       : Full
Language                    : English
Default                     : No
Forced                      : No

Text #3
ID                          : 8
Format                      : UTF-8
Codec ID                    : S_TEXT/UTF8
Codec ID/Info               : UTF-8 Plain Text
Duration                    : 2 h 12 min
Bit rate                    : 98 b/s
Count of elements           : 2897
Stream size                 : 95.9 KiB (0%)
Title                       : SDH
Language                    : English
Default                     : No
Forced                      : No

Menu
00:00:00.000                : en:00:00:00.000
00:10:26.626                : en:00:10:26.626
00:17:52.405                : en:00:17:52.405
00:23:00.879                : en:00:23:00.879
00:28:51.521                : en:00:28:51.521
00:37:36.629                : en:00:37:36.629
00:42:48.566                : en:00:42:48.566
00:49:06.068                : en:00:49:06.068
01:00:15.153                : en:01:00:15.153
01:05:10.073                : en:01:05:10.073
01:10:32.978                : en:01:10:32.978
01:16:51.940                : en:01:16:51.940
01:29:05.882                : en:01:29:05.882
01:37:40.521                : en:01:37:40.521
01:47:35.073                : en:01:47:35.073
01:59:31.706                : en:01:59:31.706
Оригінал <----------> Ріп











Джерела та подяки: &
Подяка Gelios'у за постер, 11FrYkT'у за допомогу





ЗАЛИШАЙТЕСЬ ЯКОМОГА ДОВШЕ НА РОЗДАЧІ
ЗАВАНТАЖИВ САМ - ДАЙ ЗАВАНТАЖИТИ ІНШИМ!


 Трекер:    Зареєстрований   

Завантажити / скачати фільм українською



відео для новачків



 Зареєстрований:   2016-11-01 01:58
 Розмір:   15.65 GB 
 Оцінка фільму:   3.9/10 (Голосів: 17)
   
Rokers 
Новенький


З нами з: 21.11.16
Востаннє: 03.12.16
Повідомлень: 7

2016-11-22 23:41  
igor911
Можна такий же релiз але меньшого розмiру?

Anonymous 







2016-11-22 23:45  
Rokers, див. http://toloka.to/t76218
Rokers 
Новенький


З нами з: 21.11.16
Востаннє: 03.12.16
Повідомлень: 7

2016-11-22 23:47  
igor911
дякую

Ваш часовий пояс: GMT + 2 Години

Нова тема   Відповісти