Завантажити та скачати торренти українською


Полювання на диких людей / Hunt for the Wilderpeople (2016) Ukr/Eng

Нові коментарі

Нова тема   Відповісти
Автор Повідомлення
1101 
Свій


З нами з: 09.07.12
Востаннє: 24.11.16
Повідомлень: 62

2016-10-31 21:36  
Полювання на диких людей / Hunt for the Wilderpeople (2016) Ukr/Eng

Полювання на диких людей / Hunt for the Wilderpeople (2016) Ukr/Eng


Жанр: сімейний (12+), пригоди, комедія, драма
Країна: Нова Зеландія



Кінокомпанія: Piki Films, Defender Films, Curious Film
Режисер: Тайка Вайтіті
Актори: Сем Ніл, Джуліан Деннісон ("Паперові літачки"), Ріма Те Віата, Рейчел Хауз, Тіореоре Нгатай-Мельбурн, Оскар Найтлі, Різ Дарбі та інші.

Сюжет:
Сирота Ріккі Бейкер – невиправний хуліган. Співробітниця соціальної служби Пола Голл відвозить підлітка в сільську місцевість, де живе єдина, готова прийняти його сім'я – Белла та її відлюдькуватий чоловік Гек. Коли Белла вмирає і соціальний захист збирається забрати Ріккі, хлопець тікає в неозорий новозеландський буш. Гек відправляється за ним. Навіжена Пола переконана, що чоловік звар’ював через смерть дружини і викрав підлітка. Вона оголошує загальнонаціональне полювання на втікачів.


Тривалість: 01:40:58
Якість:
Відео:
кодек:
розмір кадру: 1280 х 536
бітрейт: 5073 кб/с

Аудіо # 1:
мова: українська
переклад: одноголосий закадровий
кодек: 5.1
бітрейт: 320 кб/с

Аудіо # 2:
мова: українська
переклад: одноголосий закадровий
кодек: MP3
бітрейт: 320 кб/с

Аудіо # 3:
мова: англійська
переклад: оригінал
кодек: 5.1
бітрейт: 640 кб/с

Джерело озвучення:


Субтитри:
мова: українська (на тексти пісень)
тип: програмні (м'які)
формат: *.srt
Український трейлер (озвучення як у фільмі)


Скріншоти



Медіа Інфо

F:\Hunt.for.the.Wilderpeople.2016.mkv
Format : Matroska
Format version : Version 2
File size : 3.58 GiB
Duration : 1h 40mn
Overall bit rate : 5 073 Kbps
Encoded date : UTC 2016-10-31 18:36:43
Writing application : mkvmerge v5.0.0 ('Die Wahre Liebe') built on Sep 25 2011 20:33:49
Writing library : libebml v1.2.2 + libmatroska v1.3.0

Video
ID : 1
Format : MPEG-4 Visual
Format profile : [email protected]
Format settings, BVOP : No
Format settings, QPel : No
Format settings, GMC : No warppoints
Format settings, Matrix : Default (H.263)
Codec ID :
Codec ID/Hint :
Duration : 1h 40mn
Width : 1 280 pixels
Height : 536 pixels
Display aspect ratio : 2.40:1
Frame rate : 24.000 fps
Color space : YUV
Chroma subsampling : 4:2:0
Bit depth : 8 bits
Scan type : Progressive
Compression mode : Lossy
Writing library : Lavc56.60.100
Default : Yes
Forced : No

Audio #1
ID : 2
Format :
Format/Info : Advanced Audio Codec
Format profile : LC
Codec ID : A_AAC
Duration : 1h 40mn
Channel(s) : 6 channels
Channel positions : Front: L C R, Side: L R, LFE
Sampling rate : 48.0 KHz
Compression mode : Lossy
Language : Ukrainian
Default : Yes
Forced : Yes

Audio #2
ID : 3
Format : MPEG Audio
Format version : Version 1
Format profile : Layer 3
Mode : Joint stereo
Codec ID : A_MPEG/L3
Codec ID/Hint : MP3
Duration : 1h 40mn
Bit rate mode : Constant
Bit rate : 320 Kbps
Channel(s) : 2 channels
Sampling rate : 44.1 KHz
Compression mode : Lossy
Stream size : 231 MiB (6%)
Language : Ukrainian
Default : No
Forced : No

Audio #3
ID : 4
Format : AC-3
Format/Info : Audio Coding 3
Mode extension : CM (complete main)
Codec ID : A_AC3
Duration : 1h 40mn
Bit rate mode : Constant
Bit rate : 640 Kbps
Channel(s) : 6 channels
Channel positions : Front: L C R, Side: L R, LFE
Sampling rate : 48.0 KHz
Bit depth : 16 bits
Compression mode : Lossy
Stream size : 462 MiB (13%)
Language : English
Default : No
Forced : No

Text
ID : 5
Format : UTF-8
Codec ID : S_TEXT/UTF8
Codec ID/Info : UTF-8 Plain Text
Language : Ukrainian
Default : Yes
Forced : Yes
Особиста оцінка: 10 - без зайвих вагань рекомендую всім!


Авторський реліз (завантажувати можна без реєстрації)
 Трекер:    Зареєстрований   

Завантажити / скачати фільм українською



відео для новачків



 Зареєстрований:   2016-10-31 21:36
 Розмір:   3.58 GB 
 Оцінка фільму:   9.1/10 (Голосів: 18)
   
яфіук56н 
VIP


З нами з: 15.11.12
Востаннє: 08.12.16
Повідомлень: 339

2016-10-31 23:05  
Дивився фільм в оригіналі. Хороший. 9/10.
Неймовірне відчуття почути в Ново Зеландському фільмі український "Щедрик". Аж серце загупало (ех, сентименти!).

igor911 
Відео Гуртом
Відео Гуртом


З нами з: 18.01.08
Востаннє: 09.12.16
Повідомлень: 5194

2016-11-01 03:56  
avi, нормальний ріп () 720p
Микит@ 
Новенький


З нами з: 02.03.13
Востаннє: 03.12.16
Повідомлень: 3

2016-11-03 11:09  
Неймовірно круте кіно: краплі для ласих до новозеландських краєвидів очей і бальзам для вибагливих вух! Порадувала пісенька до іменин Ріккі: в дусі Flight of the Conchords (і бородатий Ріс Дарбі у тому ж дусі).

Словом, Дякую!

P.S. Гек зламав "щиколодку" або "кісточку", не "лодижку" (00:38:16).

1101 
Свій


З нами з: 09.07.12
Востаннє: 24.11.16
Повідомлень: 62

2016-11-07 20:43  
Микит@ написано:
P.S. Гек зламав "щиколодку" або "кісточку", не "лодижку" (00:38:16).

Ну, ступив Cry (2) Буває Cry (1)

Ваш часовий пояс: GMT + 2 Години

Нова тема   Відповісти